  0
SECTION
  2
HEADER
  9
$ACADVER
  1
AC1015
  9
$ACADMAINTVER
 70
     6
  9
$DWGCODEPAGE
  3
ANSI_1252
  9
$INSBASE
 10
0.0
 20
0.0
 30
0.0
  9
$EXTMIN
 10
0.0
 20
0.0
 30
0.0
  9
$EXTMAX
 10
296.9999999999999
 20
210.0
 30
0.0
  9
$LIMMIN
 10
0.0
 20
0.0
  9
$LIMMAX
 10
12.0
 20
9.0
  9
$ORTHOMODE
 70
     0
  9
$REGENMODE
 70
     1
  9
$FILLMODE
 70
     1
  9
$QTEXTMODE
 70
     0
  9
$MIRRTEXT
 70
     1
  9
$LTSCALE
 40
1.0
  9
$ATTMODE
 70
     1
  9
$TEXTSIZE
 40
0.2
  9
$TRACEWID
 40
0.05
  9
$TEXTSTYLE
  7
Standard
  9
$CLAYER
  8
0
  9
$CELTYPE
  6
ByLayer
  9
$CECOLOR
 62
   256
  9
$CELTSCALE
 40
1.0
  9
$DISPSILH
 70
     0
  9
$DIMSCALE
 40
1.0
  9
$DIMASZ
 40
0.18
  9
$DIMEXO
 40
0.0625
  9
$DIMDLI
 40
0.38
  9
$DIMRND
 40
0.0
  9
$DIMDLE
 40
0.0
  9
$DIMEXE
 40
0.18
  9
$DIMTP
 40
0.0
  9
$DIMTM
 40
0.0
  9
$DIMTXT
 40
0.18
  9
$DIMCEN
 40
0.09
  9
$DIMTSZ
 40
0.0
  9
$DIMTOL
 70
     0
  9
$DIMLIM
 70
     0
  9
$DIMTIH
 70
     1
  9
$DIMTOH
 70
     1
  9
$DIMSE1
 70
     0
  9
$DIMSE2
 70
     0
  9
$DIMTAD
 70
     0
  9
$DIMZIN
 70
     0
  9
$DIMBLK
  1

  9
$DIMASO
 70
     1
  9
$DIMSHO
 70
     1
  9
$DIMPOST
  1

  9
$DIMAPOST
  1

  9
$DIMALT
 70
     0
  9
$DIMALTD
 70
     2
  9
$DIMALTF
 40
25.4
  9
$DIMLFAC
 40
1.0
  9
$DIMTOFL
 70
     0
  9
$DIMTVP
 40
0.0
  9
$DIMTIX
 70
     0
  9
$DIMSOXD
 70
     0
  9
$DIMSAH
 70
     0
  9
$DIMBLK1
  1

  9
$DIMBLK2
  1

  9
$DIMSTYLE
  2
Standard
  9
$DIMCLRD
 70
     0
  9
$DIMCLRE
 70
     0
  9
$DIMCLRT
 70
     0
  9
$DIMTFAC
 40
1.0
  9
$DIMGAP
 40
0.09
  9
$DIMJUST
 70
     0
  9
$DIMSD1
 70
     0
  9
$DIMSD2
 70
     0
  9
$DIMTOLJ
 70
     1
  9
$DIMTZIN
 70
     0
  9
$DIMALTZ
 70
     0
  9
$DIMALTTZ
 70
     0
  9
$DIMUPT
 70
     0
  9
$DIMDEC
 70
     4
  9
$DIMTDEC
 70
     4
  9
$DIMALTU
 70
     2
  9
$DIMALTTD
 70
     2
  9
$DIMTXSTY
  7
Standard
  9
$DIMAUNIT
 70
     0
  9
$DIMADEC
 70
     0
  9
$DIMALTRND
 40
0.0
  9
$DIMAZIN
 70
     0
  9
$DIMDSEP
 70
    46
  9
$DIMATFIT
 70
     3
  9
$DIMFRAC
 70
     0
  9
$DIMLDRBLK
  1

  9
$DIMLUNIT
 70
     2
  9
$DIMLWD
 70
    -2
  9
$DIMLWE
 70
    -2
  9
$DIMTMOVE
 70
     0
  9
$LUNITS
 70
     2
  9
$LUPREC
 70
     4
  9
$SKETCHINC
 40
0.1
  9
$FILLETRAD
 40
0.5
  9
$AUNITS
 70
     0
  9
$AUPREC
 70
     0
  9
$MENU
  1
.
  9
$ELEVATION
 40
0.0
  9
$PELEVATION
 40
0.0
  9
$THICKNESS
 40
0.0
  9
$LIMCHECK
 70
     0
  9
$CHAMFERA
 40
0.5
  9
$CHAMFERB
 40
0.5
  9
$CHAMFERC
 40
1.0
  9
$CHAMFERD
 40
0.0
  9
$SKPOLY
 70
     0
  9
$TDCREATE
 40
2456997.616628264
  9
$TDUCREATE
 40
2456997.574961597
  9
$TDUPDATE
 40
2456997.616628808
  9
$TDUUPDATE
 40
2456997.574962141
  9
$TDINDWG
 40
0.0000000116
  9
$TDUSRTIMER
 40
0.0000000116
  9
$USRTIMER
 70
     1
  9
$ANGBASE
 50
0.0
  9
$ANGDIR
 70
     0
  9
$PDMODE
 70
     0
  9
$PDSIZE
 40
0.0
  9
$PLINEWID
 40
0.0
  9
$SPLFRAME
 70
     0
  9
$SPLINETYPE
 70
     6
  9
$SPLINESEGS
 70
     8
  9
$HANDSEED
  5
870
  9
$SURFTAB1
 70
     6
  9
$SURFTAB2
 70
     6
  9
$SURFTYPE
 70
     6
  9
$SURFU
 70
     6
  9
$SURFV
 70
     6
  9
$UCSBASE
  2

  9
$UCSNAME
  2

  9
$UCSORG
 10
0.0
 20
0.0
 30
0.0
  9
$UCSXDIR
 10
1.0
 20
0.0
 30
0.0
  9
$UCSYDIR
 10
0.0
 20
1.0
 30
0.0
  9
$UCSORTHOREF
  2

  9
$UCSORTHOVIEW
 70
     0
  9
$UCSORGTOP
 10
0.0
 20
0.0
 30
0.0
  9
$UCSORGBOTTOM
 10
0.0
 20
0.0
 30
0.0
  9
$UCSORGLEFT
 10
0.0
 20
0.0
 30
0.0
  9
$UCSORGRIGHT
 10
0.0
 20
0.0
 30
0.0
  9
$UCSORGFRONT
 10
0.0
 20
0.0
 30
0.0
  9
$UCSORGBACK
 10
0.0
 20
0.0
 30
0.0
  9
$PUCSBASE
  2

  9
$PUCSNAME
  2

  9
$PUCSORG
 10
0.0
 20
0.0
 30
0.0
  9
$PUCSXDIR
 10
1.0
 20
0.0
 30
0.0
  9
$PUCSYDIR
 10
0.0
 20
1.0
 30
0.0
  9
$PUCSORTHOREF
  2

  9
$PUCSORTHOVIEW
 70
     0
  9
$PUCSORGTOP
 10
0.0
 20
0.0
 30
0.0
  9
$PUCSORGBOTTOM
 10
0.0
 20
0.0
 30
0.0
  9
$PUCSORGLEFT
 10
0.0
 20
0.0
 30
0.0
  9
$PUCSORGRIGHT
 10
0.0
 20
0.0
 30
0.0
  9
$PUCSORGFRONT
 10
0.0
 20
0.0
 30
0.0
  9
$PUCSORGBACK
 10
0.0
 20
0.0
 30
0.0
  9
$USERI1
 70
     0
  9
$USERI2
 70
     0
  9
$USERI3
 70
     0
  9
$USERI4
 70
     0
  9
$USERI5
 70
     0
  9
$USERR1
 40
18.1
  9
$USERR2
 40
0.0
  9
$USERR3
 40
0.0
  9
$USERR4
 40
0.0
  9
$USERR5
 40
0.0
  9
$WORLDVIEW
 70
     1
  9
$SHADEDGE
 70
     3
  9
$SHADEDIF
 70
    70
  9
$TILEMODE
 70
     1
  9
$MAXACTVP
 70
    64
  9
$PINSBASE
 10
0.0
 20
0.0
 30
0.0
  9
$PLIMCHECK
 70
     0
  9
$PEXTMIN
 10
1.00000000000000E+20
 20
1.00000000000000E+20
 30
1.00000000000000E+20
  9
$PEXTMAX
 10
-1.00000000000000E+20
 20
-1.00000000000000E+20
 30
-1.00000000000000E+20
  9
$PLIMMIN
 10
0.0
 20
0.0
  9
$PLIMMAX
 10
12.0
 20
9.0
  9
$UNITMODE
 70
     0
  9
$VISRETAIN
 70
     1
  9
$PLINEGEN
 70
     0
  9
$PSLTSCALE
 70
     1
  9
$TREEDEPTH
 70
  3020
  9
$CMLSTYLE
  2
Standard
  9
$CMLJUST
 70
     0
  9
$CMLSCALE
 40
1.0
  9
$PROXYGRAPHICS
 70
     1
  9
$MEASUREMENT
 70
     1
  9
$CELWEIGHT
370
    -1
  9
$ENDCAPS
280
     0
  9
$JOINSTYLE
280
     0
  9
$LWDISPLAY
290
     0
  9
$INSUNITS
 70
     4
  9
$HYPERLINKBASE
  1

  9
$STYLESHEET
  1

  9
$XEDIT
290
     1
  9
$CEPSNTYPE
380
     0
  9
$PSTYLEMODE
290
     1
  9
$FINGERPRINTGUID
  2
{EE85FEB8-F18D-4446-B34A-74CD04D44A52}
  9
$VERSIONGUID
  2
{FAEB1C32-E019-11D5-929B-00C0DF256EC4}
  9
$EXTNAMES
290
     1
  9
$PSVPSCALE
 40
0.0
  9
$OLESTARTUP
290
     0
  0
ENDSEC
  0
SECTION
  2
CLASSES
  0
CLASS
  1
ACDBDICTIONARYWDFLT
  2
AcDbDictionaryWithDefault
  3
ObjectDBX Classes
 90
        0
280
     0
281
     0
  0
CLASS
  1
VISUALSTYLE
  2
AcDbVisualStyle
  3
ObjectDBX Classes
 90
     4095
280
     0
281
     0
  0
CLASS
  1
MATERIAL
  2
AcDbMaterial
  3
ObjectDBX Classes
 90
     1153
280
     0
281
     0
  0
CLASS
  1
DICTIONARYVAR
  2
AcDbDictionaryVar
  3
ObjectDBX Classes
 90
        0
280
     0
281
     0
  0
CLASS
  1
ACDBPLACEHOLDER
  2
AcDbPlaceHolder
  3
ObjectDBX Classes
 90
        0
280
     0
281
     0
  0
CLASS
  1
LAYOUT
  2
AcDbLayout
  3
ObjectDBX Classes
 90
        0
280
     0
281
     0
  0
ENDSEC
  0
SECTION
  2
TABLES
  0
TABLE
  2
VPORT
  5
8
330
0
100
AcDbSymbolTable
 70
     1
  0
VPORT
  5
29
330
8
100
AcDbSymbolTableRecord
100
AcDbViewportTableRecord
  2
*Active
 70
     0
 10
0.0
 20
0.0
 11
1.0
 21
1.0
 12
148.4999999999999
 22
105.0
 13
0.0
 23
0.0
 14
0.5
 24
0.5
 15
0.5
 25
0.5
 16
0.0
 26
0.0
 36
1.0
 17
0.0
 27
0.0
 37
0.0
 40
231.0
 41
1.60267857142857
 42
50.0
 43
0.0
 44
0.0
 50
0.0
 51
0.0
 71
     0
 72
   100
 73
     1
 74
     3
 75
     0
 76
     0
 77
     0
 78
     0
281
     0
 65
     1
110
0.0
120
0.0
130
0.0
111
1.0
121
0.0
131
0.0
112
0.0
122
1.0
132
0.0
 79
     0
146
0.0
  0
ENDTAB
  0
TABLE
  2
LTYPE
  5
5
330
0
100
AcDbSymbolTable
 70
     9
  0
LTYPE
  5
14
330
5
100
AcDbSymbolTableRecord
100
AcDbLinetypeTableRecord
  2
ByBlock
 70
     0
  3

 72
    65
 73
     0
 40
0.0
  0
LTYPE
  5
15
330
5
100
AcDbSymbolTableRecord
100
AcDbLinetypeTableRecord
  2
ByLayer
 70
     0
  3

 72
    65
 73
     0
 40
0.0
  0
LTYPE
  5
16
330
5
100
AcDbSymbolTableRecord
100
AcDbLinetypeTableRecord
  2
Continuous
 70
     0
  3
Solid line
 72
    65
 73
     0
 40
0.0
  0
LTYPE
  5
3F
330
5
100
AcDbSymbolTableRecord
100
AcDbLinetypeTableRecord
  2
DASHED
 70
     0
  3
Dashed
 72
    65
 73
     2
 40
15.0
 49
7.0
 74
     0
 49
-8.0
 74
     0
  0
LTYPE
  5
40
330
5
100
AcDbSymbolTableRecord
100
AcDbLinetypeTableRecord
  2
DOTTED
 70
     0
  3
Dotted
 72
    65
 73
     2
 40
1.0
 49
0.0
 74
     0
 49
-1.0
 74
     0
  0
LTYPE
  5
41
330
5
100
AcDbSymbolTableRecord
100
AcDbLinetypeTableRecord
  2
DOT_CENTER
 70
     0
  3
Dot_Center
 72
    65
 73
     4
 40
14.0
 49
12.0
 74
     0
 49
-1.0
 74
     0
 49
0.0
 74
     0
 49
-1.0
 74
     0
  0
LTYPE
  5
42
330
5
100
AcDbSymbolTableRecord
100
AcDbLinetypeTableRecord
  2
LONG_DASHED
 70
     0
  3
Long_Dashed
 72
    65
 73
     2
 40
15.0
 49
10.0
 74
     0
 49
-5.0
 74
     0
  0
LTYPE
  5
43
330
5
100
AcDbSymbolTableRecord
100
AcDbLinetypeTableRecord
  2
DASH_CENTER
 70
     0
  3
Dash_Center
 72
    65
 73
     4
 40
14.0
 49
11.0
 74
     0
 49
-1.0
 74
     0
 49
1.0
 74
     0
 49
-1.0
 74
     0
  0
LTYPE
  5
44
330
5
100
AcDbSymbolTableRecord
100
AcDbLinetypeTableRecord
  2
PHANTOM
 70
     0
  3
Phantom
 72
    65
 73
     6
 40
13.0
 49
10.0
 74
     0
 49
-1.0
 74
     0
 49
0.0
 74
     0
 49
-1.0
 74
     0
 49
0.0
 74
     0
 49
-1.0
 74
     0
  0
LTYPE
  5
45
330
5
100
AcDbSymbolTableRecord
100
AcDbLinetypeTableRecord
  2
CENTER_DASH_DASH
 70
     0
  3
Center_Dash_Dash
 72
    65
 73
     6
 40
14.0
 49
9.0
 74
     0
 49
-1.0
 74
     0
 49
1.0
 74
     0
 49
-1.0
 74
     0
 49
1.0
 74
     0
 49
-1.0
 74
     0
  0
LTYPE
  5
46
330
5
100
AcDbSymbolTableRecord
100
AcDbLinetypeTableRecord
  2
CHAIN
 70
     0
  3
CHAIN
 72
    65
 73
     4
 40
4.0
 49
1.0
 74
     0
 49
-1.0
 74
     0
 49
1.0
 74
     0
 49
-1.0
 74
     0
  0
ENDTAB
  0
TABLE
  2
LAYER
  5
2
330
0
100
AcDbSymbolTable
 70
     8
  0
LAYER
  5
10
330
2
100
AcDbSymbolTableRecord
100
AcDbLayerTableRecord
  2
0
 70
     0
 62
     7
  6
Continuous
370
    -3
390
F
  0
LAYER
  5
47
330
2
100
AcDbSymbolTableRecord
100
AcDbLayerTableRecord
  2
1
 70
     0
 62
     7
  6
Continuous
370
    -3
390
F
  0
LAYER
  5
48
330
2
100
AcDbSymbolTableRecord
100
AcDbLayerTableRecord
  2
Bemaßungen_TC_020513_DIN_
 70
     0
 62
     7
  6
Continuous
370
    -3
390
F
  0
LAYER
  5
49
330
2
100
AcDbSymbolTableRecord
100
AcDbLayerTableRecord
  2
Gewinde_TC_020513_DIN_
 70
     0
 62
     7
  6
Continuous
370
    -3
390
F
  0
LAYER
  5
4A
330
2
100
AcDbSymbolTableRecord
100
AcDbLayerTableRecord
  2
Mittellinie_TC_020513_DIN_
 70
     0
 62
     7
  6
Continuous
370
    -3
390
F
  0
LAYER
  5
4B
330
2
100
AcDbSymbolTableRecord
100
AcDbLayerTableRecord
  2
Mittelpunktmarkierung_TC_020513_DIN_
 70
     0
 62
     7
  6
Continuous
370
    -3
390
F
  0
LAYER
  5
4C
330
2
100
AcDbSymbolTableRecord
100
AcDbLayerTableRecord
  2
Sichtbare_Kanten_TC_020513_DIN_
 70
     0
 62
     7
  6
Continuous
370
    -3
390
F
  0
LAYER
  5
4D
330
2
100
AcDbSymbolTableRecord
100
AcDbLayerTableRecord
  2
Skizziergeometrie_TC_020513_DIN_
 70
     0
 62
     7
  6
Continuous
370
    -3
390
F
  0
ENDTAB
  0
TABLE
  2
STYLE
  5
3
330
0
100
AcDbSymbolTable
 70
     4
  0
STYLE
  5
11
330
3
100
AcDbSymbolTableRecord
100
AcDbTextStyleTableRecord
  2
Standard
 70
     0
 40
0.0
 41
1.0
 50
0.0
 71
     0
 42
0.2
  3
txt
  4

  0
STYLE
  5
96
330
3
100
AcDbSymbolTableRecord
100
AcDbTextStyleTableRecord
  2
CONVERTER_11
 70
     0
 40
0.0
 41
0.9
 50
0.0
 71
     0
 42
0.2
  3
txt.shx
  4

  0
STYLE
  5
99
330
3
100
AcDbSymbolTableRecord
100
AcDbTextStyleTableRecord
  2
CONVERTER_12
 70
     0
 40
0.0
 41
1.035
 50
0.0
 71
     0
 42
0.2
  3
txt.shx
  4

  0
STYLE
  5
7D3
330
3
100
AcDbSymbolTableRecord
100
AcDbTextStyleTableRecord
  2
CONVERTER_13
 70
     0
 40
0.0
 41
0.95
 50
0.0
 71
     0
 42
0.2
  3
simplex.shx
  4

  0
ENDTAB
  0
TABLE
  2
VIEW
  5
6
330
0
100
AcDbSymbolTable
 70
     0
  0
ENDTAB
  0
TABLE
  2
UCS
  5
7
330
0
100
AcDbSymbolTable
 70
     0
  0
ENDTAB
  0
TABLE
  2
APPID
  5
9
330
0
100
AcDbSymbolTable
 70
     1
  0
APPID
  5
12
330
9
100
AcDbSymbolTableRecord
100
AcDbRegAppTableRecord
  2
ACAD
 70
     0
  0
ENDTAB
  0
TABLE
  2
DIMSTYLE
  5
A
330
0
100
AcDbSymbolTable
 70
    11
100
AcDbDimStyleTable
  0
DIMSTYLE
105
27
330
A
100
AcDbSymbolTableRecord
100
AcDbDimStyleTableRecord
  2
Standard
 70
     0
178
     0
340
11
  0
DIMSTYLE
105
7DE
102
{ACAD_REACTORS
330
7DF
102
}
330
A
100
AcDbSymbolTableRecord
100
AcDbDimStyleTableRecord
  2
ME10_DIM_10
 70
     0
 41
3.0
 42
0.5
 44
1.0
 73
     0
 74
     0
 77
     1
 78
     8
140
3.0
147
2.0
172
     1
173
     1
174
     1
175
     1
176
     2
177
     2
271
     2
178
     4
271
     2
340
7D3
  0
DIMSTYLE
105
7E9
102
{ACAD_REACTORS
330
7EA
102
}
330
A
100
AcDbSymbolTableRecord
100
AcDbDimStyleTableRecord
  2
ME10_DIM_11
 70
     0
 41
3.0
 42
0.5
 44
1.0
 73
     0
 74
     0
 77
     1
 78
     8
140
3.0
147
2.0
172
     1
173
     1
174
     1
175
     1
176
     2
177
     2
271
     2
178
     4
271
     2
340
7D3
  0
DIMSTYLE
105
7F4
102
{ACAD_REACTORS
330
7F5
102
}
330
A
100
AcDbSymbolTableRecord
100
AcDbDimStyleTableRecord
  2
ME10_DIM_12
 70
     0
 41
3.0
 42
0.5
 44
1.0
 73
     0
 74
     0
 77
     1
 78
     8
140
3.0
147
2.0
172
     1
173
     1
174
     1
175
     1
176
     2
177
     2
271
     2
178
     4
271
     2
340
7D3
  0
DIMSTYLE
105
7FF
102
{ACAD_REACTORS
330
800
102
}
330
A
100
AcDbSymbolTableRecord
100
AcDbDimStyleTableRecord
  2
ME10_DIM_13
 70
     0
 41
3.0
 42
0.5
 44
1.0
 73
     0
 74
     0
 77
     1
 78
     8
140
3.0
147
2.0
172
     1
173
     1
174
     1
175
     1
176
     2
177
     2
271
     2
178
     4
271
     2
340
7D3
  0
DIMSTYLE
105
80A
102
{ACAD_REACTORS
330
80B
102
}
330
A
100
AcDbSymbolTableRecord
100
AcDbDimStyleTableRecord
  2
ME10_DIM_14
 70
     0
 41
3.0
 42
0.5
 44
1.0
 73
     0
 74
     0
 77
     1
 78
     8
140
3.0
147
2.0
172
     1
173
     1
174
     1
175
     1
176
     2
177
     2
271
     2
178
     4
271
     2
340
7D3
  0
DIMSTYLE
105
815
102
{ACAD_REACTORS
330
816
102
}
330
A
100
AcDbSymbolTableRecord
100
AcDbDimStyleTableRecord
  2
ME10_DIM_15
 70
     0
 41
3.0
 42
0.5
 44
1.0
 73
     0
 74
     0
 77
     1
 78
     8
140
3.0
147
2.0
172
     1
173
     1
174
     1
175
     1
176
     2
177
     2
271
     2
178
     4
271
     2
340
7D3
  0
DIMSTYLE
105
820
102
{ACAD_REACTORS
330
821
102
}
330
A
100
AcDbSymbolTableRecord
100
AcDbDimStyleTableRecord
  2
ME10_DIM_16
 70
     0
 41
3.0
 42
0.5
 44
1.0
 73
     0
 74
     0
 77
     1
 78
     8
140
3.0
147
2.0
172
     1
173
     1
174
     1
175
     1
176
     2
177
     2
271
     2
178
     4
271
     2
340
7D3
  0
DIMSTYLE
105
82B
102
{ACAD_REACTORS
330
82C
102
}
330
A
100
AcDbSymbolTableRecord
100
AcDbDimStyleTableRecord
  2
ME10_DIM_17
 70
     0
 41
3.0
 42
0.5
 44
1.0
 73
     0
 74
     0
 77
     1
 78
     8
140
3.0
147
2.0
172
     1
173
     1
174
     1
175
     1
176
     2
177
     2
271
     2
178
     4
271
     2
340
7D3
  0
DIMSTYLE
105
836
102
{ACAD_REACTORS
330
837
102
}
330
A
100
AcDbSymbolTableRecord
100
AcDbDimStyleTableRecord
  2
ME10_DIM_18
 70
     0
 41
3.0
 42
0.5
 44
1.0
 73
     0
 74
     0
 77
     1
 78
     8
140
3.0
147
2.0
172
     1
173
     1
174
     1
175
     1
176
     2
177
     2
271
     2
178
     4
271
     2
340
7D3
  0
DIMSTYLE
105
843
102
{ACAD_REACTORS
330
844
102
}
330
A
100
AcDbSymbolTableRecord
100
AcDbDimStyleTableRecord
  2
ME10_DIM_19
 70
     0
 41
3.0
 42
0.5
 44
1.0
 73
     0
 74
     0
 77
     1
 78
     8
140
3.0
147
2.0
172
     1
173
     1
174
     1
175
     1
176
     2
177
     2
271
     2
178
     4
271
     2
340
7D3
  0
ENDTAB
  0
TABLE
  2
BLOCK_RECORD
  5
1
330
0
100
AcDbSymbolTable
 70
    12
  0
BLOCK_RECORD
  5
1F
330
1
100
AcDbSymbolTableRecord
100
AcDbBlockTableRecord
  2
*Model_Space
340
22
  0
BLOCK_RECORD
  5
1B
330
1
100
AcDbSymbolTableRecord
100
AcDbBlockTableRecord
  2
*Paper_Space
340
1E
  0
BLOCK_RECORD
  5
23
330
1
100
AcDbSymbolTableRecord
100
AcDbBlockTableRecord
  2
*Paper_Space0
340
26
  0
BLOCK_RECORD
  5
4E
330
1
100
AcDbSymbolTableRecord
100
AcDbBlockTableRecord
  2
_formato_A4
340
0
102
{BLKREFS
331
51
102
}
  0
BLOCK_RECORD
  5
7D5
330
1
100
AcDbSymbolTableRecord
100
AcDbBlockTableRecord
  2
*D2
340
0
  0
BLOCK_RECORD
  5
7E0
330
1
100
AcDbSymbolTableRecord
100
AcDbBlockTableRecord
  2
*D3
340
0
  0
BLOCK_RECORD
  5
7EB
330
1
100
AcDbSymbolTableRecord
100
AcDbBlockTableRecord
  2
*D4
340
0
  0
BLOCK_RECORD
  5
7F6
330
1
100
AcDbSymbolTableRecord
100
AcDbBlockTableRecord
  2
*D5
340
0
  0
BLOCK_RECORD
  5
801
330
1
100
AcDbSymbolTableRecord
100
AcDbBlockTableRecord
  2
*D6
340
0
  0
BLOCK_RECORD
  5
80C
330
1
100
AcDbSymbolTableRecord
100
AcDbBlockTableRecord
  2
*D7
340
0
  0
BLOCK_RECORD
  5
817
330
1
100
AcDbSymbolTableRecord
100
AcDbBlockTableRecord
  2
*D8
340
0
  0
BLOCK_RECORD
  5
822
330
1
100
AcDbSymbolTableRecord
100
AcDbBlockTableRecord
  2
*D9
340
0
  0
BLOCK_RECORD
  5
82D
330
1
100
AcDbSymbolTableRecord
100
AcDbBlockTableRecord
  2
*D10
340
0
  0
BLOCK_RECORD
  5
838
330
1
100
AcDbSymbolTableRecord
100
AcDbBlockTableRecord
  2
*D11
340
0
  0
ENDTAB
  0
ENDSEC
  0
SECTION
  2
BLOCKS
  0
BLOCK
  5
20
330
1F
100
AcDbEntity
  8
0
100
AcDbBlockBegin
  2
*Model_Space
 70
     0
 10
0.0
 20
0.0
 30
0.0
  3
*Model_Space
  1

  0
ENDBLK
  5
21
330
1F
100
AcDbEntity
  8
0
100
AcDbBlockEnd
  0
BLOCK
  5
1C
330
1B
100
AcDbEntity
 67
     1
  8
0
100
AcDbBlockBegin
  2
*Paper_Space
 70
     0
 10
0.0
 20
0.0
 30
0.0
  3
*Paper_Space
  1

  0
ENDBLK
  5
1D
330
1B
100
AcDbEntity
 67
     1
  8
0
100
AcDbBlockEnd
  0
BLOCK
  5
24
330
23
100
AcDbEntity
  8
0
100
AcDbBlockBegin
  2
*Paper_Space0
 70
     0
 10
0.0
 20
0.0
 30
0.0
  3
*Paper_Space0
  1

  0
ENDBLK
  5
25
330
23
100
AcDbEntity
  8
0
100
AcDbBlockEnd
  0
BLOCK
  5
4F
330
4E
100
AcDbEntity
  8
0
100
AcDbBlockBegin
  2
_formato_A4
 70
     0
 10
296.9999999999999
 20
0.0
 30
0.0
  3
_formato_A4
  1

  0
LINE
  5
52
330
4E
100
AcDbEntity
  8
1
  6
Continuous
 62
     7
100
AcDbLine
 10
108.0
 20
9.99999999999986
 30
0.0
 11
138.0
 21
9.99999999999986
 31
0.0
  0
LINE
  5
53
330
4E
100
AcDbEntity
  8
1
  6
Continuous
 62
     7
100
AcDbLine
 10
108.0
 20
14.9999999999999
 30
0.0
 11
138.0
 21
14.9999999999999
 31
0.0
  0
LINE
  5
54
330
4E
100
AcDbEntity
  8
1
  6
Continuous
 62
     7
100
AcDbLine
 10
247.9999999999999
 20
20.0
 30
0.0
 11
247.9999999999999
 21
5.0
 31
0.0
  0
LINE
  5
55
330
4E
100
AcDbEntity
  8
1
  6
Continuous
 62
     7
100
AcDbLine
 10
265.352601377485
 20
20.0
 30
0.0
 11
265.352601377485
 21
5.0
 31
0.0
  0
LINE
  5
56
330
4E
100
AcDbEntity
  8
1
  6
Continuous
 62
     7
100
AcDbLine
 10
138.0
 20
20.0
 30
0.0
 11
138.0
 21
5.0
 31
0.0
  0
LINE
  5
57
330
4E
100
AcDbEntity
  8
1
  6
Continuous
 62
     7
100
AcDbLine
 10
148.5
 20
210.0
 30
0.0
 11
148.5
 21
195.0
 31
0.0
  0
LINE
  5
58
330
4E
100
AcDbEntity
  8
1
  6
Continuous
 62
     7
100
AcDbLine
 10
0.0
 20
0.0
 30
0.0
 11
296.9999999999999
 21
0.0
 31
0.0
  0
LINE
  5
59
330
4E
100
AcDbEntity
  8
1
  6
Continuous
 62
     7
100
AcDbLine
 10
0.0
 20
210.0
 30
0.0
 11
0.0
 21
0.0
 31
0.0
  0
LINE
  5
5A
330
4E
100
AcDbEntity
  8
1
  6
Continuous
 62
     7
100
AcDbLine
 10
296.9999999999999
 20
210.0
 30
0.0
 11
0.0
 21
210.0
 31
0.0
  0
LINE
  5
5B
330
4E
100
AcDbEntity
  8
1
  6
Continuous
 62
     7
100
AcDbLine
 10
296.9999999999999
 20
0.0
 30
0.0
 11
296.9999999999999
 21
210.0
 31
0.0
  0
LINE
  5
5C
330
4E
100
AcDbEntity
  8
1
  6
Continuous
 62
     7
100
AcDbLine
 10
4.99999999999989
 20
5.0
 30
0.0
 11
108.0
 21
5.0
 31
0.0
  0
LINE
  5
5D
330
4E
100
AcDbEntity
  8
1
  6
Continuous
 62
     7
100
AcDbLine
 10
291.9999999999999
 20
5.0
 30
0.0
 11
291.9999999999999
 21
189.0
 31
0.0
  0
LINE
  5
5E
330
4E
100
AcDbEntity
  8
1
  6
Continuous
 62
     7
100
AcDbLine
 10
291.9999999999999
 20
189.0
 30
0.0
 11
4.99999999999989
 21
189.0
 31
0.0
  0
LINE
  5
5F
102
{ACAD_REACTORS
330
A0
102
}
330
4E
100
AcDbEntity
  8
1
  6
Continuous
 62
     7
100
AcDbLine
 10
281.009634022076
 20
10.0774998398326
 30
0.0
 11
281.009634022076
 21
14.9225001601674
 31
0.0
  0
LINE
  5
60
102
{ACAD_REACTORS
330
9D
102
}
330
4E
100
AcDbEntity
  8
1
  6
Continuous
 62
     7
100
AcDbLine
 10
279.6763006887431
 20
12.5
 30
0.0
 11
279.6763006887431
 21
14.2320508075688
 31
0.0
  0
LINE
  5
61
102
{ACAD_REACTORS
330
9D
102
}
330
4E
100
AcDbEntity
  8
1
  6
Continuous
 62
     7
100
AcDbLine
 10
279.6763006887431
 20
14.2320508075688
 30
0.0
 11
278.82063825604
 21
12.75
 31
0.0
  0
LINE
  5
62
102
{ACAD_REACTORS
330
9D
102
}
330
4E
100
AcDbEntity
  8
1
  6
Continuous
 62
     7
100
AcDbLine
 10
278.531963121445
 20
12.75
 30
0.0
 11
277.6763006887431
 21
14.2320508075688
 31
0.0
  0
LINE
  5
63
102
{ACAD_REACTORS
330
9D
102
}
330
4E
100
AcDbEntity
  8
1
  6
Continuous
 62
     7
100
AcDbLine
 10
277.6763006887431
 20
14.2320508075688
 30
0.0
 11
277.6763006887431
 21
12.5
 31
0.0
  0
LINE
  5
64
330
4E
100
AcDbEntity
  8
1
  6
Continuous
 62
     7
100
AcDbLine
 10
270.2598654136011
 20
12.6443642643413
 30
0.0
 11
278.6763006887431
 21
17.5
 31
0.0
  0
LINE
  5
65
330
4E
100
AcDbEntity
  8
1
  6
Continuous
 62
     7
100
AcDbLine
 10
278.6763006887431
 20
17.5
 30
0.0
 11
287.092735963884
 21
12.6443642643413
 31
0.0
  0
LINE
  5
66
330
4E
100
AcDbEntity
  8
1
  6
Continuous
 62
     7
100
AcDbLine
 10
287.092735963884
 20
12.3556357356586
 30
0.0
 11
278.6763006887431
 21
7.5
 31
0.0
  0
LINE
  5
67
330
4E
100
AcDbEntity
  8
1
  6
Continuous
 62
     7
100
AcDbLine
 10
278.6763006887431
 20
7.5
 30
0.0
 11
270.2598654136011
 21
12.3556357356586
 31
0.0
  0
LINE
  5
68
102
{ACAD_REACTORS
330
9D
102
}
330
4E
100
AcDbEntity
  8
1
  6
Continuous
 62
     7
100
AcDbLine
 10
277.009634022076
 20
12.5
 30
0.0
 11
277.009634022076
 21
15.7312173120346
 31
0.0
  0
LINE
  5
69
102
{ACAD_REACTORS
330
9D
102
}
330
4E
100
AcDbEntity
  8
1
  6
Continuous
 62
     7
100
AcDbLine
 10
277.5040677056999
 20
15.8637004182723
 30
0.0
 11
278.6763006887431
 21
13.8333333333333
 31
0.0
  0
LINE
  5
6A
102
{ACAD_REACTORS
330
9D
102
}
330
4E
100
AcDbEntity
  8
1
  6
Continuous
 62
     7
100
AcDbLine
 10
277.009634022076
 20
12.5
 30
0.0
 11
277.009634022076
 21
10.8475850726329
 31
0.0
  0
LINE
  5
6B
102
{ACAD_REACTORS
330
9D
102
}
330
4E
100
AcDbEntity
  8
1
  6
Continuous
 62
     7
100
AcDbLine
 10
277.6763006887431
 20
10.8475850726329
 30
0.0
 11
277.6763006887431
 21
12.5
 31
0.0
  0
LINE
  5
6C
102
{ACAD_REACTORS
330
9D
102
}
330
4E
100
AcDbEntity
  8
1
  6
Continuous
 62
     7
100
AcDbLine
 10
279.6763006887431
 20
12.5
 30
0.0
 11
279.6763006887431
 21
9.3082690706018
 31
0.0
  0
LINE
  5
6D
102
{ACAD_REACTORS
330
9D
102
}
330
4E
100
AcDbEntity
  8
1
  6
Continuous
 62
     7
100
AcDbLine
 10
280.3429673554089
 20
9.3082690706018
 30
0.0
 11
280.3429673554089
 21
15.7312173120346
 31
0.0
  0
LINE
  5
6E
102
{ACAD_REACTORS
330
9D
102
}
330
4E
100
AcDbEntity
  8
1
  6
Continuous
 62
     7
100
AcDbLine
 10
279.848533671786
 20
15.8637004182723
 30
0.0
 11
278.6763006887431
 21
13.8333333333333
 31
0.0
  0
LINE
  5
6F
102
{ACAD_REACTORS
330
9E
102
}
330
4E
100
AcDbEntity
  8
1
  6
Continuous
 62
     7
100
AcDbLine
 10
275.6763006887431
 20
10.2700211480326
 30
0.0
 11
275.6763006887431
 21
14.9225001601674
 31
0.0
  0
LINE
  5
70
102
{ACAD_REACTORS
330
9E
102
}
330
4E
100
AcDbEntity
  8
1
  6
Continuous
 62
     7
100
AcDbLine
 10
276.3429673554089
 20
14.9225001601674
 30
0.0
 11
276.3429673554089
 21
10.2700211480327
 31
0.0
  0
LINE
  5
71
102
{ACAD_REACTORS
330
9E
102
}
330
4E
100
AcDbEntity
  8
1
  6
Continuous
 62
     7
100
AcDbLine
 10
276.3429673554089
 20
10.2700211480327
 30
0.0
 11
278.5095415065729
 21
9.0200745223616
 31
0.0
  0
LINE
  5
72
102
{ACAD_REACTORS
330
9E
102
}
330
4E
100
AcDbEntity
  8
1
  6
Continuous
 62
     7
100
AcDbLine
 10
278.176393204246
 20
8.44261746499581
 30
0.0
 11
276.0098190530829
 21
9.69256409066691
 31
0.0
  0
LINE
  5
73
102
{ACAD_REACTORS
330
9F
102
}
330
4E
100
AcDbEntity
  8
1
  6
Continuous
 62
     7
100
AcDbLine
 10
275.009634022076
 20
14.1532693909367
 30
0.0
 11
275.009634022076
 21
11.0392519172633
 31
0.0
  0
LINE
  5
74
102
{ACAD_REACTORS
330
9F
102
}
330
4E
100
AcDbEntity
  8
1
  6
Continuous
 62
     7
100
AcDbLine
 10
275.009634022076
 20
11.0392519172633
 30
0.0
 11
275.009634022076
 21
10.8467306090632
 31
0.0
  0
LINE
  5
75
102
{ACAD_REACTORS
330
9F
102
}
330
4E
100
AcDbEntity
  8
1
  6
Continuous
 62
     7
100
AcDbLine
 10
274.3429673554089
 20
10.8467306090632
 30
0.0
 11
274.3429673554089
 21
14.1532693909367
 31
0.0
  0
LINE
  5
76
102
{ACAD_REACTORS
330
A0
102
}
330
4E
100
AcDbEntity
  8
1
  6
Continuous
 62
     7
100
AcDbLine
 10
281.5095415065729
 20
15.2112286888503
 30
0.0
 11
282.842874839906
 21
14.4419979196194
 31
0.0
  0
LINE
  5
77
102
{ACAD_REACTORS
330
A0
102
}
330
4E
100
AcDbEntity
  8
1
  6
Continuous
 62
     7
100
AcDbLine
 10
282.50972653758
 20
13.8645408622538
 30
0.0
 11
281.6763006887431
 21
14.345363467352
 31
0.0
  0
LINE
  5
78
102
{ACAD_REACTORS
330
A0
102
}
330
4E
100
AcDbEntity
  8
1
  6
Continuous
 62
     7
100
AcDbLine
 10
281.6763006887431
 20
14.345363467352
 30
0.0
 11
281.6763006887431
 21
12.8333333333333
 31
0.0
  0
LINE
  5
79
102
{ACAD_REACTORS
330
A0
102
}
330
4E
100
AcDbEntity
  8
1
  6
Continuous
 62
     7
100
AcDbLine
 10
281.6763006887431
 20
12.8333333333333
 30
0.0
 11
282.6763006887431
 21
12.8333333333333
 31
0.0
  0
LINE
  5
7A
102
{ACAD_REACTORS
330
A0
102
}
330
4E
100
AcDbEntity
  8
1
  6
Continuous
 62
     7
100
AcDbLine
 10
282.6763006887431
 20
12.1666666666666
 30
0.0
 11
281.6763006887431
 21
12.1666666666666
 31
0.0
  0
LINE
  5
7B
102
{ACAD_REACTORS
330
A0
102
}
330
4E
100
AcDbEntity
  8
1
  6
Continuous
 62
     7
100
AcDbLine
 10
281.6763006887431
 20
12.1666666666666
 30
0.0
 11
281.6763006887431
 21
10.6546365326479
 31
0.0
  0
LINE
  5
7C
102
{ACAD_REACTORS
330
A0
102
}
330
4E
100
AcDbEntity
  8
1
  6
Continuous
 62
     7
100
AcDbLine
 10
281.6763006887431
 20
10.6546365326479
 30
0.0
 11
282.50972653758
 21
11.1354591377462
 31
0.0
  0
LINE
  5
7D
102
{ACAD_REACTORS
330
A0
102
}
330
4E
100
AcDbEntity
  8
1
  6
Continuous
 62
     7
100
AcDbLine
 10
282.842874839906
 20
10.5580020803803
 30
0.0
 11
281.5095415065729
 21
9.78877131114973
 31
0.0
  0
LINE
  5
7E
330
4E
100
AcDbEntity
  8
1
  6
Continuous
 62
     7
100
AcDbLine
 10
108.0
 20
25.0
 30
0.0
 11
291.9999999999999
 21
25.0
 31
0.0
  0
LINE
  5
7F
330
4E
100
AcDbEntity
  8
1
  6
Continuous
 62
     7
100
AcDbLine
 10
115.0
 20
20.0
 30
0.0
 11
115.0
 21
25.0
 31
0.0
  0
LINE
  5
80
330
4E
100
AcDbEntity
  8
1
  6
Continuous
 62
     7
100
AcDbLine
 10
133.0
 20
20.0
 30
0.0
 11
133.0
 21
25.0
 31
0.0
  0
LINE
  5
81
330
4E
100
AcDbEntity
  8
1
  6
Continuous
 62
     7
100
AcDbLine
 10
4.99999999999989
 20
189.0
 30
0.0
 11
4.99999999999989
 21
5.0
 31
0.0
  0
LINE
  5
82
330
4E
100
AcDbEntity
  8
1
  6
Continuous
 62
     7
100
AcDbLine
 10
108.0
 20
20.0
 30
0.0
 11
291.9999999999999
 21
20.0
 31
0.0
  0
LINE
  5
83
330
4E
100
AcDbEntity
  8
1
  6
Continuous
 62
     7
100
AcDbLine
 10
108.0
 20
25.0
 30
0.0
 11
108.0
 21
5.0
 31
0.0
  0
LINE
  5
84
330
4E
100
AcDbEntity
  8
1
  6
Continuous
 62
     7
100
AcDbLine
 10
108.0
 20
5.0
 30
0.0
 11
291.9999999999999
 21
5.0
 31
0.0
  0
ARC
  5
85
102
{ACAD_REACTORS
330
9D
102
}
330
4E
100
AcDbEntity
  8
1
  6
Continuous
 62
     7
100
AcDbCircle
 10
278.6763006887431
 20
12.8333333333333
 30
0.0
 40
0.1666666666672217
100
AcDbArc
 50
209.9999999998767
 51
329.9999999999279
  0
ARC
  5
86
102
{ACAD_REACTORS
330
9E
102
}
330
4E
100
AcDbEntity
  8
1
  6
Continuous
 62
     7
100
AcDbCircle
 10
276.3429673554089
 20
10.2700211480327
 30
0.0
 40
0.666666666665833
100
AcDbArc
 50
180.0000000000087
 51
240.018360631179
  0
ARC
  5
87
330
4E
100
AcDbEntity
  8
1
  6
Continuous
 62
     7
100
AcDbCircle
 10
270.343152489183
 20
12.5
 30
0.0
 40
0.1666666666666998
100
AcDbArc
 50
119.9816393689606
 51
240.0183606310565
  0
ARC
  5
88
330
4E
100
AcDbEntity
  8
1
  6
Continuous
 62
     7
100
AcDbCircle
 10
287.009448888303
 20
12.5
 30
0.0
 40
0.1666666666663598
100
AcDbArc
 50
299.9816393686896
 51
60.01836063129329
  0
ARC
  5
89
102
{ACAD_REACTORS
330
A0
102
}
330
4E
100
AcDbEntity
  8
1
  6
Continuous
 62
     7
100
AcDbCircle
 10
281.3429673554089
 20
14.9225001601674
 30
0.0
 40
0.3333333333337433
100
AcDbArc
 50
60.01836063103966
 51
180.0
  0
ARC
  5
8A
102
{ACAD_REACTORS
330
A0
102
}
330
4E
100
AcDbEntity
  8
1
  6
Continuous
 62
     7
100
AcDbCircle
 10
281.3429673554089
 20
10.0774998398326
 30
0.0
 40
0.3333333333329165
100
AcDbArc
 50
180.0
 51
299.9816393689629
  0
ARC
  5
8B
102
{ACAD_REACTORS
330
9D
102
}
330
4E
100
AcDbEntity
  8
1
  6
Continuous
 62
     7
100
AcDbCircle
 10
277.274600234551
 20
15.7312173120346
 30
0.0
 40
0.264966212476014
100
AcDbArc
 50
29.99999999992336
 51
180.0
  0
ARC
  5
8C
102
{ACAD_REACTORS
330
9D
102
}
330
4E
100
AcDbEntity
  8
1
  6
Continuous
 62
     7
100
AcDbCircle
 10
277.3429673554089
 20
10.8475850726329
 30
0.0
 40
0.3333333333329165
100
AcDbArc
 50
180.0
 51
0.0
  0
ARC
  5
8D
102
{ACAD_REACTORS
330
9D
102
}
330
4E
100
AcDbEntity
  8
1
  6
Continuous
 62
     7
100
AcDbCircle
 10
280.009634022076
 20
9.3082690706018
 30
0.0
 40
0.3333333333329165
100
AcDbArc
 50
180.0
 51
0.0
  0
ARC
  5
8E
102
{ACAD_REACTORS
330
9D
102
}
330
4E
100
AcDbEntity
  8
1
  6
Continuous
 62
     7
100
AcDbCircle
 10
280.0780011429339
 20
15.7312173120346
 30
0.0
 40
0.2649662124750307
100
AcDbArc
 50
0.0
 51
149.9999999999599
  0
ARC
  5
8F
102
{ACAD_REACTORS
330
9E
102
}
330
4E
100
AcDbEntity
  8
1
  6
Continuous
 62
     7
100
AcDbCircle
 10
276.009634022076
 20
14.9225001601674
 30
0.0
 40
0.3333333333329165
100
AcDbArc
 50
0.0
 51
180.0
  0
ARC
  5
90
102
{ACAD_REACTORS
330
9E
102
}
330
4E
100
AcDbEntity
  8
1
  6
Continuous
 62
     7
100
AcDbCircle
 10
278.3429673554089
 20
8.7313459936787
 30
0.0
 40
0.3333333333332227
100
AcDbArc
 50
240.0183606311911
 51
60.01836063103995
  0
ARC
  5
91
102
{ACAD_REACTORS
330
9F
102
}
330
4E
100
AcDbEntity
  8
1
  6
Continuous
 62
     7
100
AcDbCircle
 10
274.6763006887431
 20
14.1532693909367
 30
0.0
 40
0.3333333333329165
100
AcDbArc
 50
0.0
 51
180.0
  0
ARC
  5
92
102
{ACAD_REACTORS
330
9F
102
}
330
4E
100
AcDbEntity
  8
1
  6
Continuous
 62
     7
100
AcDbCircle
 10
274.6763006887431
 20
10.8467306090632
 30
0.0
 40
0.333333333334167
100
AcDbArc
 50
180.0
 51
0.0
  0
ARC
  5
93
102
{ACAD_REACTORS
330
A0
102
}
330
4E
100
AcDbEntity
  8
1
  6
Continuous
 62
     7
100
AcDbCircle
 10
282.6763006887431
 20
14.1532693909367
 30
0.0
 40
0.3333333333333172
100
AcDbArc
 50
240.0183606311666
 51
60.01836063117491
  0
ARC
  5
94
102
{ACAD_REACTORS
330
A0
102
}
330
4E
100
AcDbEntity
  8
1
  6
Continuous
 62
     7
100
AcDbCircle
 10
282.6763006887431
 20
12.5
 30
0.0
 40
0.3333333333333997
100
AcDbArc
 50
270.0
 51
90.0
  0
ARC
  5
95
102
{ACAD_REACTORS
330
A0
102
}
330
4E
100
AcDbEntity
  8
1
  6
Continuous
 62
     7
100
AcDbCircle
 10
282.6763006887431
 20
10.8467306090632
 30
0.0
 40
0.3333333333332335
100
AcDbArc
 50
299.9816393688079
 51
119.9816393688249
  0
MTEXT
  5
97
330
4E
100
AcDbEntity
  8
1
 62
     7
100
AcDbMText
 10
109.0
 20
7.49999999999987
 30
0.0
 40
3.0
 41
0.0
 71
     4
 72
     1
  1
Sign.
  7
CONVERTER_11
 73
     1
 44
0.75727272727273
  0
MTEXT
  5
98
330
4E
100
AcDbEntity
  8
1
 62
     7
100
AcDbMText
 10
109.0
 20
12.4999999999999
 30
0.0
 40
3.0
 41
0.0
 71
     4
 72
     1
  1
Date
  7
CONVERTER_11
 73
     1
 44
0.75727272727273
  0
MTEXT
  5
9A
330
4E
100
AcDbEntity
  8
1
 62
     7
100
AcDbMText
 10
123.0
 20
17.4999999999999
 30
0.0
 40
2.5
 41
0.0
 71
     5
 72
     1
  1
dimensions in mm
  7
CONVERTER_12
 73
     1
 44
0.75727272727273
  0
MTEXT
  5
9B
330
4E
100
AcDbEntity
  8
1
 62
     7
100
AcDbMText
 10
151.5
 20
194.0
 30
0.0
 40
4.0
 41
0.0
 71
     5
 72
     1
  1
Diritti riservati      All rights reserved
  7
CONVERTER_11
 73
     1
 44
0.75727272727273
  0
MTEXT
  5
9C
330
4E
100
AcDbEntity
  8
1
 62
     7
100
AcDbMText
 10
256.6763006887431
 20
16.260639420756
 30
0.0
 40
3.0
 41
0.0
 71
     5
 72
     1
  1
Scale
  7
CONVERTER_11
 73
     1
 44
0.75727272727273
  0
HATCH
  5
9D
330
4E
100
AcDbEntity
  8
1
  6
Continuous
 62
     7
100
AcDbHatch
 10
0.0
 20
0.0
 30
0.0
210
0.0
220
0.0
230
1.0
  2
SOLID
 70
     1
 71
     1
 91
        1
 92
        1
 93
       16
 72
     2
 10
277.274600234551
 20
15.7312173120346
 40
0.264966212476014
 50
29.99999999992336
 51
180.0
 73
     1
 72
     1
 10
277.009634022076
 20
15.7312173120346
 11
277.009634022076
 21
12.5
 72
     1
 10
277.009634022076
 20
12.5
 11
277.009634022076
 21
10.8475850726329
 72
     2
 10
277.3429673554089
 20
10.8475850726329
 40
0.3333333333329165
 50
180.0
 51
360.0
 73
     1
 72
     1
 10
277.6763006887431
 20
10.8475850726329
 11
277.6763006887431
 21
12.5
 72
     1
 10
277.6763006887431
 20
12.5
 11
277.6763006887431
 21
14.2320508075688
 72
     1
 10
277.6763006887431
 20
14.2320508075688
 11
278.531963121445
 21
12.75
 72
     2
 10
278.6763006887431
 20
12.8333333333333
 40
0.1666666666672217
 50
209.9999999998767
 51
329.9999999999279
 73
     1
 72
     1
 10
278.82063825604
 20
12.75
 11
279.6763006887431
 21
14.2320508075688
 72
     1
 10
279.6763006887431
 20
14.2320508075688
 11
279.6763006887431
 21
12.5
 72
     1
 10
279.6763006887431
 20
12.5
 11
279.6763006887431
 21
9.3082690706018
 72
     2
 10
280.009634022076
 20
9.3082690706018
 40
0.3333333333329165
 50
180.0
 51
360.0
 73
     1
 72
     1
 10
280.3429673554089
 20
9.3082690706018
 11
280.3429673554089
 21
15.7312173120346
 72
     2
 10
280.0780011429339
 20
15.7312173120346
 40
0.2649662124750307
 50
0.0
 51
149.9999999999599
 73
     1
 72
     1
 10
279.848533671786
 20
15.8637004182723
 11
278.6763006887431
 21
13.8333333333333
 72
     1
 10
278.6763006887431
 20
13.8333333333333
 11
277.5040677056999
 21
15.8637004182723
 97
       16
330
6E
330
8E
330
6D
330
8D
330
6C
330
60
330
61
330
85
330
62
330
63
330
6B
330
8C
330
6A
330
68
330
8B
330
69
 75
     0
 76
     1
 98
        1
 10
0.0
 20
0.0
  0
HATCH
  5
9E
330
4E
100
AcDbEntity
  8
1
  6
Continuous
 62
     7
100
AcDbHatch
 10
0.0
 20
0.0
 30
0.0
210
0.0
220
0.0
230
1.0
  2
SOLID
 70
     1
 71
     1
 91
        1
 92
        1
 93
        7
 72
     1
 10
276.3429673554089
 20
14.9225001601674
 11
276.3429673554089
 21
10.2700211480327
 72
     1
 10
276.3429673554089
 20
10.2700211480327
 11
278.5095415065729
 21
9.0200745223616
 72
     2
 10
278.3429673554089
 20
8.731345993678698
 40
0.3333333333332227
 50
299.98163936896
 51
479.9816393688089
 73
     0
 72
     1
 10
278.176393204246
 20
8.44261746499581
 11
276.0098190530829
 21
9.69256409066691
 72
     2
 10
276.3429673554089
 20
10.2700211480327
 40
0.666666666665833
 50
119.981639368821
 51
179.9999999999913
 73
     0
 72
     1
 10
275.6763006887431
 20
10.2700211480326
 11
275.6763006887431
 21
14.9225001601674
 72
     2
 10
276.009634022076
 20
14.9225001601674
 40
0.3333333333329165
 50
180.0
 51
360.0
 73
     0
 97
        7
330
70
330
71
330
90
330
72
330
86
330
6F
330
8F
 75
     0
 76
     1
 98
        1
 10
0.0
 20
0.0
  0
HATCH
  5
9F
330
4E
100
AcDbEntity
  8
1
  6
Continuous
 62
     7
100
AcDbHatch
 10
0.0
 20
0.0
 30
0.0
210
0.0
220
0.0
230
1.0
  2
SOLID
 70
     1
 71
     1
 91
        1
 92
        1
 93
        5
 72
     1
 10
275.009634022076
 20
14.1532693909367
 11
275.009634022076
 21
11.0392519172633
 72
     1
 10
275.009634022076
 20
11.0392519172633
 11
275.009634022076
 21
10.8467306090632
 72
     2
 10
274.6763006887431
 20
10.8467306090632
 40
0.333333333334167
 50
0.0
 51
180.0
 73
     0
 72
     1
 10
274.3429673554089
 20
10.8467306090632
 11
274.3429673554089
 21
14.1532693909367
 72
     2
 10
274.6763006887431
 20
14.1532693909367
 40
0.3333333333329165
 50
180.0
 51
360.0
 73
     0
 97
        5
330
73
330
74
330
92
330
75
330
91
 75
     0
 76
     1
 98
        1
 10
0.0
 20
0.0
  0
HATCH
  5
A0
330
4E
100
AcDbEntity
  8
1
  6
Continuous
 62
     7
100
AcDbHatch
 10
0.0
 20
0.0
 30
0.0
210
0.0
220
0.0
230
1.0
  2
SOLID
 70
     1
 71
     1
 91
        1
 92
        1
 93
       14
 72
     1
 10
282.50972653758
 20
13.8645408622538
 11
281.6763006887431
 21
14.345363467352
 72
     1
 10
281.6763006887431
 20
14.345363467352
 11
281.6763006887431
 21
12.8333333333333
 72
     1
 10
281.6763006887431
 20
12.8333333333333
 11
282.6763006887431
 21
12.8333333333333
 72
     2
 10
282.6763006887431
 20
12.5
 40
0.3333333333333997
 50
270.0
 51
450.0
 73
     0
 72
     1
 10
282.6763006887431
 20
12.1666666666666
 11
281.6763006887431
 21
12.1666666666666
 72
     1
 10
281.6763006887431
 20
12.1666666666666
 11
281.6763006887431
 21
10.6546365326479
 72
     1
 10
281.6763006887431
 20
10.6546365326479
 11
282.50972653758
 21
11.1354591377462
 72
     2
 10
282.6763006887431
 20
10.8467306090632
 40
0.3333333333332335
 50
240.0183606311751
 51
420.0183606311921
 73
     0
 72
     1
 10
282.842874839906
 20
10.5580020803803
 11
281.5095415065729
 21
9.78877131114973
 72
     2
 10
281.3429673554089
 20
10.0774998398326
 40
0.3333333333329165
 50
60.01836063103707
 51
180.0
 73
     0
 72
     1
 10
281.009634022076
 20
10.0774998398326
 11
281.009634022076
 21
14.9225001601674
 72
     2
 10
281.3429673554089
 20
14.9225001601674
 40
0.3333333333337433
 50
180.0
 51
299.9816393689604
 73
     0
 72
     1
 10
281.5095415065729
 20
15.2112286888503
 11
282.842874839906
 21
14.4419979196194
 72
     2
 10
282.6763006887431
 20
14.1532693909367
 40
0.3333333333333172
 50
299.9816393688251
 51
479.9816393688335
 73
     0
 97
       14
330
76
330
89
330
5F
330
8A
330
7D
330
95
330
7C
330
7B
330
7A
330
94
330
79
330
78
330
77
330
93
 75
     0
 76
     1
 98
        1
 10
0.0
 20
0.0
  0
ENDBLK
  5
50
330
4E
100
AcDbEntity
  8
0
100
AcDbBlockEnd
  0
BLOCK
  5
7DC
330
7D5
100
AcDbEntity
  8
0
100
AcDbBlockBegin
  2
*D2
 70
     1
 10
0.0
 20
0.0
 30
0.0
  3
*D2
  1

  0
LINE
  5
7D6
330
7D5
100
AcDbEntity
  8
1
  6
Continuous
 62
     2
100
AcDbLine
 10
16.74280395429862
 20
175.313512369028
 30
0.0
 11
183.610703897731
 21
175.313512369028
 31
0.0
  0
LINE
  5
7D7
330
7D5
100
AcDbEntity
  8
1
  6
Continuous
 62
     2
100
AcDbLine
 10
16.74280395429862
 20
124.4558390389283
 30
0.0
 11
16.74280395429862
 21
176.313512369028
 31
0.0
  0
LINE
  5
7D8
330
7D5
100
AcDbEntity
  8
1
  6
Continuous
 62
     2
100
AcDbLine
 10
183.610703897731
 20
125.4558373871159
 30
0.0
 11
183.610703897731
 21
176.313512369028
 31
0.0
  0
SOLID
  5
7D9
330
7D5
100
AcDbEntity
  8
1
 62
     2
100
AcDbTrace
 10
19.74280395429862
 20
175.7084698617902
 30
0.0
 11
19.74280395429862
 21
174.9185548762658
 31
0.0
 12
16.74280395429862
 22
175.313512369028
 32
0.0
 13
16.74280395429862
 23
175.313512369028
 33
0.0
  0
SOLID
  5
7DA
330
7D5
100
AcDbEntity
  8
1
 62
     2
100
AcDbTrace
 10
180.610703897731
 20
174.9185548762658
 30
0.0
 11
180.610703897731
 21
175.7084698617902
 31
0.0
 12
183.610703897731
 22
175.313512369028
 32
0.0
 13
183.610703897731
 23
175.313512369028
 33
0.0
  0
MTEXT
  5
7DB
330
7D5
100
AcDbEntity
  8
1
 62
     4
100
AcDbMText
 10
97.02675392601479
 20
177.313512369028
 30
0.0
 40
3.0
 41
0.0
 71
     7
 72
     1
  1
169
  7
CONVERTER_13
 11
0.9999999999970619
 21
2.424068405545306E-6
 31
0.0
 73
     1
 44
0.60024009603842
  0
ENDBLK
  5
7DD
330
7D5
100
AcDbEntity
  8
0
100
AcDbBlockEnd
  0
BLOCK
  5
7E7
330
7E0
100
AcDbEntity
  8
0
100
AcDbBlockBegin
  2
*D3
 70
     1
 10
0.0
 20
0.0
 30
0.0
  3
*D3
  1

  0
LINE
  5
7E1
330
7E0
100
AcDbEntity
  8
1
  6
Continuous
 62
     2
100
AcDbLine
 10
34.30175392601481
 20
47.1
 30
0.0
 11
166.176753926015
 21
47.1
 31
0.0
  0
LINE
  5
7E2
330
7E0
100
AcDbEntity
  8
1
  6
Continuous
 62
     2
100
AcDbLine
 10
34.30175392601481
 20
58.95583738711647
 30
0.0
 11
34.30175392601481
 21
46.1
 31
0.0
  0
LINE
  5
7E3
330
7E0
100
AcDbEntity
  8
1
  6
Continuous
 62
     2
100
AcDbLine
 10
166.176753926015
 20
58.95583738711647
 30
0.0
 11
166.176753926015
 21
46.1
 31
0.0
  0
SOLID
  5
7E4
330
7E0
100
AcDbEntity
  8
1
 62
     2
100
AcDbTrace
 10
37.30175392601481
 20
47.49495749276219
 30
0.0
 11
37.30175392601481
 21
46.70504250723781
 31
0.0
 12
34.30175392601481
 22
47.1
 32
0.0
 13
34.30175392601481
 23
47.1
 33
0.0
  0
SOLID
  5
7E5
330
7E0
100
AcDbEntity
  8
1
 62
     2
100
AcDbTrace
 10
163.176753926015
 20
46.70504250723781
 30
0.0
 11
163.176753926015
 21
47.49495749276219
 31
0.0
 12
166.176753926015
 22
47.1
 32
0.0
 13
166.176753926015
 23
47.1
 33
0.0
  0
MTEXT
  5
7E6
330
7E0
100
AcDbEntity
  8
1
 62
     4
100
AcDbMText
 10
97.08925392601489
 20
49.1
 30
0.0
 40
3.0
 41
0.0
 71
     7
 72
     1
  1
132
  7
CONVERTER_13
 11
0.9999999999970619
 21
2.424068405545306E-6
 31
0.0
 73
     1
 44
0.60024009603842
  0
ENDBLK
  5
7E8
330
7E0
100
AcDbEntity
  8
0
100
AcDbBlockEnd
  0
BLOCK
  5
7F2
330
7EB
100
AcDbEntity
  8
0
100
AcDbBlockBegin
  2
*D4
 70
     1
 10
0.0
 20
0.0
 30
0.0
  3
*D4
  1

  0
LINE
  5
7EC
330
7EB
100
AcDbEntity
  8
1
  6
Continuous
 62
     2
100
AcDbLine
 10
172.176753926015
 20
32.7
 30
0.0
 11
28.17675392601481
 21
32.7
 31
0.0
  0
LINE
  5
7ED
330
7EB
100
AcDbEntity
  8
1
  6
Continuous
 62
     2
100
AcDbLine
 10
172.176753926015
 20
61.45583738711647
 30
0.0
 11
172.176753926015
 21
31.7
 31
0.0
  0
LINE
  5
7EE
330
7EB
100
AcDbEntity
  8
1
  6
Continuous
 62
     2
100
AcDbLine
 10
28.17675392601481
 20
61.45583738711647
 30
0.0
 11
28.17675392601481
 21
31.7
 31
0.0
  0
SOLID
  5
7EF
330
7EB
100
AcDbEntity
  8
1
 62
     2
100
AcDbTrace
 10
169.176753926015
 20
32.30504250723781
 30
0.0
 11
169.176753926015
 21
33.09495749276219
 31
0.0
 12
172.176753926015
 22
32.7
 32
0.0
 13
172.176753926015
 23
32.7
 33
0.0
  0
SOLID
  5
7F0
330
7EB
100
AcDbEntity
  8
1
 62
     2
100
AcDbTrace
 10
31.17675392601481
 20
33.09495749276219
 30
0.0
 11
31.17675392601481
 21
32.30504250723781
 31
0.0
 12
28.17675392601481
 22
32.7
 32
0.0
 13
28.17675392601481
 23
32.7
 33
0.0
  0
MTEXT
  5
7F1
330
7EB
100
AcDbEntity
  8
1
 62
     4
100
AcDbMText
 10
97.02675392601489
 20
34.7
 30
0.0
 40
3.0
 41
0.0
 71
     7
 72
     1
  1
144
  7
CONVERTER_13
 11
0.9999999999970619
 21
2.424068405545306E-6
 31
0.0
 73
     1
 44
0.60024009603842
  0
ENDBLK
  5
7F3
330
7EB
100
AcDbEntity
  8
0
100
AcDbBlockEnd
  0
BLOCK
  5
7FD
330
7F6
100
AcDbEntity
  8
0
100
AcDbBlockBegin
  2
*D5
 70
     1
 10
0.0
 20
0.0
 30
0.0
  3
*D5
  1

  0
LINE
  5
7F7
330
7F6
100
AcDbEntity
  8
1
  6
Continuous
 62
     2
100
AcDbLine
 10
215.819556064479
 20
32.7
 30
0.0
 11
272.819556064479
 21
32.7
 31
0.0
  0
LINE
  5
7F8
330
7F6
100
AcDbEntity
  8
1
  6
Continuous
 62
     2
100
AcDbLine
 10
215.819556064479
 20
61.45583738711647
 30
0.0
 11
215.819556064479
 21
31.7
 31
0.0
  0
LINE
  5
7F9
330
7F6
100
AcDbEntity
  8
1
  6
Continuous
 62
     2
100
AcDbLine
 10
272.819556064479
 20
61.45583738711647
 30
0.0
 11
272.819556064479
 21
31.7
 31
0.0
  0
SOLID
  5
7FA
330
7F6
100
AcDbEntity
  8
1
 62
     2
100
AcDbTrace
 10
218.819556064479
 20
33.09495749276219
 30
0.0
 11
218.819556064479
 21
32.30504250723781
 31
0.0
 12
215.819556064479
 22
32.7
 32
0.0
 13
215.819556064479
 23
32.7
 33
0.0
  0
SOLID
  5
7FB
330
7F6
100
AcDbEntity
  8
1
 62
     2
100
AcDbTrace
 10
269.819556064479
 20
32.30504250723781
 30
0.0
 11
269.819556064479
 21
33.09495749276219
 31
0.0
 12
272.819556064479
 22
32.7
 32
0.0
 13
272.819556064479
 23
32.7
 33
0.0
  0
MTEXT
  5
7FC
330
7F6
100
AcDbEntity
  8
1
 62
     4
100
AcDbMText
 10
242.069556064479
 20
34.7
 30
0.0
 40
3.0
 41
0.0
 71
     7
 72
     1
  1
57
  7
CONVERTER_13
 11
0.9999999999970619
 21
2.424068405545306E-6
 31
0.0
 73
     1
 44
0.60024009603842
  0
ENDBLK
  5
7FE
330
7F6
100
AcDbEntity
  8
0
100
AcDbBlockEnd
  0
BLOCK
  5
808
330
801
100
AcDbEntity
  8
0
100
AcDbBlockBegin
  2
*D6
 70
     1
 10
0.0
 20
0.0
 30
0.0
  3
*D6
  1

  0
LINE
  5
802
330
801
100
AcDbEntity
  8
1
  6
Continuous
 62
     2
100
AcDbLine
 10
221.8195560644809
 20
46.7204298603878
 30
0.0
 11
266.8195560644809
 21
46.7204298603878
 31
0.0
  0
LINE
  5
803
330
801
100
AcDbEntity
  8
1
  6
Continuous
 62
     2
100
AcDbLine
 10
221.8195560644809
 20
58.95583738711647
 30
0.0
 11
221.8195560644809
 21
45.7204298603878
 31
0.0
  0
LINE
  5
804
330
801
100
AcDbEntity
  8
1
  6
Continuous
 62
     2
100
AcDbLine
 10
266.8195560644809
 20
58.95583738711647
 30
0.0
 11
266.8195560644809
 21
45.7204298603878
 31
0.0
  0
SOLID
  5
805
330
801
100
AcDbEntity
  8
1
 62
     2
100
AcDbTrace
 10
224.8195560644809
 20
47.11538735314999
 30
0.0
 11
224.8195560644809
 21
46.32547236762561
 31
0.0
 12
221.8195560644809
 22
46.7204298603878
 32
0.0
 13
221.8195560644809
 23
46.7204298603878
 33
0.0
  0
SOLID
  5
806
330
801
100
AcDbEntity
  8
1
 62
     2
100
AcDbTrace
 10
263.8195560644809
 20
46.32547236762561
 30
0.0
 11
263.8195560644809
 21
47.11538735314999
 31
0.0
 12
266.8195560644809
 22
46.7204298603878
 32
0.0
 13
266.8195560644809
 23
46.7204298603878
 33
0.0
  0
MTEXT
  5
807
330
801
100
AcDbEntity
  8
1
 62
     4
100
AcDbMText
 10
242.0695560644809
 20
48.7204298603878
 30
0.0
 40
3.0
 41
0.0
 71
     7
 72
     1
  1
45
  7
CONVERTER_13
 11
0.9999999999970619
 21
2.424068405545306E-6
 31
0.0
 73
     1
 44
0.60024009603842
  0
ENDBLK
  5
809
330
801
100
AcDbEntity
  8
0
100
AcDbBlockEnd
  0
BLOCK
  5
813
330
80C
100
AcDbEntity
  8
0
100
AcDbBlockBegin
  2
*D7
 70
     1
 10
0.0
 20
0.0
 30
0.0
  3
*D7
  1

  0
LINE
  5
80D
330
80C
100
AcDbEntity
  8
1
  6
Continuous
 62
     2
100
AcDbLine
 10
282.726739982582
 20
141.9558373871169
 30
0.0
 11
282.726739982582
 21
61.95583738711649
 31
0.0
  0
LINE
  5
80E
330
80C
100
AcDbEntity
  8
1
  6
Continuous
 62
     2
100
AcDbLine
 10
266.8695560644841
 20
141.9558373871169
 30
0.0
 11
283.726739982582
 21
141.9558373871169
 31
0.0
  0
LINE
  5
80F
330
80C
100
AcDbEntity
  8
1
  6
Continuous
 62
     2
100
AcDbLine
 10
273.319556064479
 20
61.95583738711649
 30
0.0
 11
283.726739982582
 21
61.95583738711649
 31
0.0
  0
SOLID
  5
810
330
80C
100
AcDbEntity
  8
1
 62
     2
100
AcDbTrace
 10
283.1216974753441
 20
138.9558373871169
 30
0.0
 11
282.3317824898198
 21
138.9558373871169
 31
0.0
 12
282.726739982582
 22
141.9558373871169
 32
0.0
 13
282.726739982582
 23
141.9558373871169
 33
0.0
  0
SOLID
  5
811
330
80C
100
AcDbEntity
  8
1
 62
     2
100
AcDbTrace
 10
282.3317824898198
 20
64.95583738711649
 30
0.0
 11
283.1216974753441
 21
64.95583738711649
 31
0.0
 12
282.726739982582
 22
61.95583738711649
 32
0.0
 13
282.726739982582
 23
61.95583738711649
 33
0.0
  0
MTEXT
  5
812
330
80C
100
AcDbEntity
  8
1
 62
     4
100
AcDbMText
 10
280.726739982582
 20
99.5558373871167
 30
0.0
 40
3.0
 41
0.0
 71
     7
 72
     1
  1
80
  7
CONVERTER_13
 11
0.0
 21
1.0
 31
0.0
 73
     1
 44
0.60024009603842
  0
ENDBLK
  5
814
330
80C
100
AcDbEntity
  8
0
100
AcDbBlockEnd
  0
BLOCK
  5
81E
330
817
100
AcDbEntity
  8
0
100
AcDbBlockBegin
  2
*D8
 70
     1
 10
0.0
 20
0.0
 30
0.0
  3
*D8
  1

  0
LINE
  5
818
330
817
100
AcDbEntity
  8
1
  6
Continuous
 62
     2
100
AcDbLine
 10
272.819556064489
 20
174.484417193744
 30
0.0
 11
215.819556064489
 21
174.484417193744
 31
0.0
  0
LINE
  5
819
330
817
100
AcDbEntity
  8
1
  6
Continuous
 62
     2
100
AcDbLine
 10
272.819556064489
 20
139.4558373871169
 30
0.0
 11
272.819556064489
 21
175.484417193744
 31
0.0
  0
LINE
  5
81A
330
817
100
AcDbEntity
  8
1
  6
Continuous
 62
     2
100
AcDbLine
 10
215.819556064489
 20
139.4558373871169
 30
0.0
 11
215.819556064489
 21
175.484417193744
 31
0.0
  0
SOLID
  5
81B
330
817
100
AcDbEntity
  8
1
 62
     2
100
AcDbTrace
 10
269.819556064489
 20
174.0894597009818
 30
0.0
 11
269.819556064489
 21
174.8793746865062
 31
0.0
 12
272.819556064489
 22
174.484417193744
 32
0.0
 13
272.819556064489
 23
174.484417193744
 33
0.0
  0
SOLID
  5
81C
330
817
100
AcDbEntity
  8
1
 62
     2
100
AcDbTrace
 10
218.819556064489
 20
174.8793746865062
 30
0.0
 11
218.819556064489
 21
174.0894597009818
 31
0.0
 12
215.819556064489
 22
174.484417193744
 32
0.0
 13
215.819556064489
 23
174.484417193744
 33
0.0
  0
MTEXT
  5
81D
330
817
100
AcDbEntity
  8
1
 62
     4
100
AcDbMText
 10
242.069556064489
 20
176.484417193744
 30
0.0
 40
3.0
 41
0.0
 71
     7
 72
     1
  1
58
  7
CONVERTER_13
 11
0.9999999999970619
 21
2.424068405545306E-6
 31
0.0
 73
     1
 44
0.60024009603842
  0
ENDBLK
  5
81F
330
817
100
AcDbEntity
  8
0
100
AcDbBlockEnd
  0
BLOCK
  5
829
330
822
100
AcDbEntity
  8
0
100
AcDbBlockBegin
  2
*D9
 70
     1
 10
0.0
 20
0.0
 30
0.0
  3
*D9
  1

  0
LINE
  5
823
330
822
100
AcDbEntity
  8
1
  6
Continuous
 62
     2
100
AcDbLine
 10
184.062503471343
 20
67.95583738711649
 30
0.0
 11
184.062503471343
 21
107.9558373871169
 31
0.0
  0
LINE
  5
824
330
822
100
AcDbEntity
  8
1
  6
Continuous
 62
     2
100
AcDbLine
 10
172.799146355271
 20
67.95583738711649
 30
0.0
 11
185.062503471343
 21
67.95583738711649
 31
0.0
  0
LINE
  5
825
330
822
100
AcDbEntity
  8
1
  6
Continuous
 62
     2
100
AcDbLine
 10
166.176753926015
 20
107.9558373871169
 30
0.0
 11
185.062503471343
 21
107.9558373871169
 31
0.0
  0
SOLID
  5
826
330
822
100
AcDbEntity
  8
1
 62
     2
100
AcDbTrace
 10
183.6675459785808
 20
70.95583738711649
 30
0.0
 11
184.4574609641052
 21
70.95583738711649
 31
0.0
 12
184.062503471343
 22
67.95583738711649
 32
0.0
 13
184.062503471343
 23
67.95583738711649
 33
0.0
  0
SOLID
  5
827
330
822
100
AcDbEntity
  8
1
 62
     2
100
AcDbTrace
 10
184.4574609641052
 20
104.9558373871169
 30
0.0
 11
183.6675459785808
 21
104.9558373871169
 31
0.0
 12
184.062503471343
 22
107.9558373871169
 32
0.0
 13
184.062503471343
 23
107.9558373871169
 33
0.0
  0
MTEXT
  5
828
330
822
100
AcDbEntity
  8
1
 62
     4
100
AcDbMText
 10
182.062503471343
 20
84.05583738711668
 30
0.0
 40
3.0
 41
0.0
 71
     7
 72
     1
  1
M40
  7
CONVERTER_13
 11
0.0
 21
1.0
 31
0.0
 73
     1
 44
0.60024009603842
  0
ENDBLK
  5
82A
330
822
100
AcDbEntity
  8
0
100
AcDbBlockEnd
  0
BLOCK
  5
834
330
82D
100
AcDbEntity
  8
0
100
AcDbBlockBegin
  2
*D10
 70
     1
 10
0.0
 20
0.0
 30
0.0
  3
*D10
  1

  0
LINE
  5
82E
330
82D
100
AcDbEntity
  8
1
  6
Continuous
 62
     2
100
AcDbLine
 10
18.3601473748647
 20
67.95583738711647
 30
0.0
 11
18.3601473748647
 21
107.9558373871169
 31
0.0
  0
LINE
  5
82F
330
82D
100
AcDbEntity
  8
1
  6
Continuous
 62
     2
100
AcDbLine
 10
27.8173145031791
 20
67.95583738711647
 30
0.0
 11
17.3601473748647
 21
67.95583738711647
 31
0.0
  0
LINE
  5
830
330
82D
100
AcDbEntity
  8
1
  6
Continuous
 62
     2
100
AcDbLine
 10
27.67675392601478
 20
107.9558373871169
 30
0.0
 11
17.3601473748647
 21
107.9558373871169
 31
0.0
  0
SOLID
  5
831
330
82D
100
AcDbEntity
  8
1
 62
     2
100
AcDbTrace
 10
17.96518988210251
 20
70.95583738711647
 30
0.0
 11
18.75510486762689
 21
70.95583738711647
 31
0.0
 12
18.3601473748647
 22
67.95583738711647
 32
0.0
 13
18.3601473748647
 23
67.95583738711647
 33
0.0
  0
SOLID
  5
832
330
82D
100
AcDbEntity
  8
1
 62
     2
100
AcDbTrace
 10
18.75510486762689
 20
104.9558373871169
 30
0.0
 11
17.96518988210251
 21
104.9558373871169
 31
0.0
 12
18.3601473748647
 22
107.9558373871169
 32
0.0
 13
18.3601473748647
 23
107.9558373871169
 33
0.0
  0
MTEXT
  5
833
330
82D
100
AcDbEntity
  8
1
 62
     4
100
AcDbMText
 10
16.3601473748647
 20
84.05583738711667
 30
0.0
 40
3.0
 41
0.0
 71
     7
 72
     1
  1
M40
  7
CONVERTER_13
 11
0.0
 21
1.0
 31
0.0
 73
     1
 44
0.60024009603842
  0
ENDBLK
  5
835
330
82D
100
AcDbEntity
  8
0
100
AcDbBlockEnd
  0
BLOCK
  5
841
330
838
100
AcDbEntity
  8
0
100
AcDbBlockBegin
  2
*D11
 70
     1
 10
0.0
 20
0.0
 30
0.0
  3
*D11
  1

  0
LINE
  5
839
330
838
100
AcDbEntity
  8
1
  6
Continuous
 62
     2
100
AcDbLine
 10
208.304536001407
 20
75.29919770827131
 30
0.0
 11
208.304536001407
 21
65.95583738711647
 31
0.0
  0
LINE
  5
83A
330
838
100
AcDbEntity
  8
1
  6
Continuous
 62
     2
100
AcDbLine
 10
208.304536001407
 20
65.95583738711647
 30
0.0
 11
208.304536001407
 21
61.95583738711647
 31
0.0
  0
LINE
  5
83B
330
838
100
AcDbEntity
  8
1
  6
Continuous
 62
     2
100
AcDbLine
 10
208.304536001407
 20
61.95583738711647
 30
0.0
 11
208.304536001407
 21
55.95583738711647
 31
0.0
  0
LINE
  5
83C
330
838
100
AcDbEntity
  8
1
  6
Continuous
 62
     2
100
AcDbLine
 10
215.319556064479
 20
65.95583738711647
 30
0.0
 11
207.304536001407
 21
65.95583738711647
 31
0.0
  0
LINE
  5
83D
330
838
100
AcDbEntity
  8
1
  6
Continuous
 62
     2
100
AcDbLine
 10
215.319556064479
 20
61.95583738711647
 30
0.0
 11
207.304536001407
 21
61.95583738711647
 31
0.0
  0
SOLID
  5
83E
330
838
100
AcDbEntity
  8
1
 62
     2
100
AcDbTrace
 10
207.9095785086448
 20
68.95583738711647
 30
0.0
 11
208.6994934941692
 21
68.95583738711647
 31
0.0
 12
208.304536001407
 22
65.95583738711647
 32
0.0
 13
208.304536001407
 23
65.95583738711647
 33
0.0
  0
SOLID
  5
83F
330
838
100
AcDbEntity
  8
1
 62
     2
100
AcDbTrace
 10
208.6994934941692
 20
58.95583738711647
 30
0.0
 11
207.9095785086448
 21
58.95583738711647
 31
0.0
 12
208.304536001407
 22
61.95583738711647
 32
0.0
 13
208.304536001407
 23
61.95583738711647
 33
0.0
  0
MTEXT
  5
840
330
838
100
AcDbEntity
  8
1
 62
     4
100
AcDbMText
 10
206.304536001407
 20
73.4991977082713
 30
0.0
 40
3.0
 41
0.0
 71
     7
 72
     1
  1
4
  7
CONVERTER_13
 11
0.0
 21
1.0
 31
0.0
 73
     1
 44
0.60024009603842
  0
ENDBLK
  5
842
330
838
100
AcDbEntity
  8
0
100
AcDbBlockEnd
  0
ENDSEC
  0
SECTION
  2
ENTITIES
  0
INSERT
  5
51
330
1F
100
AcDbEntity
  8
1
100
AcDbBlockReference
  2
_formato_A4
 10
296.9999999999999
 20
0.0
 30
0.0
  0
POINT
  5
A1
330
1F
100
AcDbEntity
  8
Bemaßungen_TC_020513_DIN_
 62
     7
100
AcDbPoint
 10
28.17675392601478
 20
67.95583738711647
 30
0.0
  0
POINT
  5
A2
330
1F
100
AcDbEntity
  8
Bemaßungen_TC_020513_DIN_
 62
     7
100
AcDbPoint
 10
28.17675392601478
 20
107.9558373871169
 30
0.0
  0
POINT
  5
A3
330
1F
100
AcDbEntity
  8
Bemaßungen_TC_020513_DIN_
 62
     7
100
AcDbPoint
 10
215.819556064479
 20
61.95583738711648
 30
0.0
  0
POINT
  5
A4
330
1F
100
AcDbEntity
  8
Bemaßungen_TC_020513_DIN_
 62
     7
100
AcDbPoint
 10
215.819556064479
 20
65.95583738711647
 30
0.0
  0
POINT
  5
A5
330
1F
100
AcDbEntity
  8
Bemaßungen_TC_020513_DIN_
 62
     7
100
AcDbPoint
 10
267.419556064488
 20
159.9558373871169
 30
0.0
  0
POINT
  5
A6
330
1F
100
AcDbEntity
  8
Bemaßungen_TC_020513_DIN_
 62
     7
100
AcDbPoint
 10
272.819556064479
 20
61.95583738711648
 30
0.0
  0
POINT
  5
A7
330
1F
100
AcDbEntity
  8
Bemaßungen_TC_020513_DIN_
 62
     7
100
AcDbPoint
 10
272.819556064479
 20
63.95583738711648
 30
0.0
  0
POINT
  5
A8
330
1F
100
AcDbEntity
  8
Bemaßungen_TC_020513_DIN_
 62
     7
100
AcDbPoint
 10
215.819556064479
 20
63.95583738711648
 30
0.0
  0
POINT
  5
A9
330
1F
100
AcDbEntity
  8
Bemaßungen_TC_020513_DIN_
 62
     7
100
AcDbPoint
 10
266.8195560644809
 20
59.45583738711648
 30
0.0
  0
POINT
  5
AA
330
1F
100
AcDbEntity
  8
Bemaßungen_TC_020513_DIN_
 62
     7
100
AcDbPoint
 10
221.8195560644809
 20
59.45583738711648
 30
0.0
  0
POINT
  5
AB
330
1F
100
AcDbEntity
  8
Bemaßungen_TC_020513_DIN_
 62
     7
100
AcDbPoint
 10
154.426753926015
 20
141.9558373871169
 30
0.0
  0
POINT
  5
AC
330
1F
100
AcDbEntity
  8
Bemaßungen_TC_020513_DIN_
 62
     7
100
AcDbPoint
 10
153.176753926015
 20
61.95583738711648
 30
0.0
  0
POINT
  5
AD
330
1F
100
AcDbEntity
  8
Bemaßungen_TC_020513_DIN_
 62
     7
100
AcDbPoint
 10
172.176753926015
 20
63.95583738711648
 30
0.0
  0
POINT
  5
AE
330
1F
100
AcDbEntity
  8
Bemaßungen_TC_020513_DIN_
 62
     7
100
AcDbPoint
 10
28.17675392601478
 20
63.95583738711648
 30
0.0
  0
POINT
  5
AF
330
1F
100
AcDbEntity
  8
Bemaßungen_TC_020513_DIN_
 62
     7
100
AcDbPoint
 10
166.176753926015
 20
59.45583738711648
 30
0.0
  0
POINT
  5
B0
330
1F
100
AcDbEntity
  8
Bemaßungen_TC_020513_DIN_
 62
     7
100
AcDbPoint
 10
34.30175392601478
 20
59.45583738711648
 30
0.0
  0
POINT
  5
B1
330
1F
100
AcDbEntity
  8
Bemaßungen_TC_020513_DIN_
 62
     7
100
AcDbPoint
 10
183.610703897731
 20
123.9558373871159
 30
0.0
  0
POINT
  5
B2
330
1F
100
AcDbEntity
  8
Bemaßungen_TC_020513_DIN_
 62
     7
100
AcDbPoint
 10
16.74280395429867
 20
123.9558373871159
 30
0.0
  0
POINT
  5
B3
330
1F
100
AcDbEntity
  8
Bemaßungen_TC_020513_DIN_
 62
     7
100
AcDbPoint
 10
172.176753926015
 20
67.95583738711647
 30
0.0
  0
POINT
  5
B4
330
1F
100
AcDbEntity
  8
Bemaßungen_TC_020513_DIN_
 62
     7
100
AcDbPoint
 10
165.676753926015
 20
107.9558373871169
 30
0.0
  0
LWPOLYLINE
  5
5AD
330
1F
100
AcDbEntity
  8
Mittelpunktmarkierung_TC_020513_DIN_
  6
CHAIN
 62
     7
100
AcDbPolyline
 90
        2
 70
     0
 43
0.25
 10
65.67675392601478
 20
128.2058373871169
 10
65.67675392601478
 20
119.7058373871169
  0
LWPOLYLINE
  5
5AE
330
1F
100
AcDbEntity
  8
Mittelpunktmarkierung_TC_020513_DIN_
  6
CHAIN
 62
     7
100
AcDbPolyline
 90
        2
 70
     0
 43
0.25
 10
69.92675392601473
 20
123.9558373871159
 10
61.42675392601478
 20
123.9558373871159
  0
LWPOLYLINE
  5
5AF
330
1F
100
AcDbEntity
  8
Mittelpunktmarkierung_TC_020513_DIN_
  6
CHAIN
 62
     7
100
AcDbPolyline
 90
        2
 70
     0
 43
0.25
 10
134.676753926015
 20
128.2058373871169
 10
134.676753926015
 20
119.7058373871169
  0
LWPOLYLINE
  5
5B0
330
1F
100
AcDbEntity
  8
Mittelpunktmarkierung_TC_020513_DIN_
  6
CHAIN
 62
     7
100
AcDbPolyline
 90
        2
 70
     0
 43
0.25
 10
138.926753926015
 20
123.9558373871159
 10
130.426753926015
 20
123.9558373871159
  0
LWPOLYLINE
  5
5B1
330
1F
100
AcDbEntity
  8
Mittelpunktmarkierung_TC_020513_DIN_
  6
CHAIN
 62
     7
100
AcDbPolyline
 90
        2
 70
     0
 43
0.25
 10
62.67675392601478
 20
142.1558373871169
 10
62.67675392601478
 20
127.7558373871169
  0
LWPOLYLINE
  5
5B2
330
1F
100
AcDbEntity
  8
Mittelpunktmarkierung_TC_020513_DIN_
  6
CHAIN
 62
     7
100
AcDbPolyline
 90
        2
 70
     0
 43
0.25
 10
69.87675392601477
 20
134.9558373871169
 10
55.47675392601479
 20
134.9558373871169
  0
LWPOLYLINE
  5
5B3
330
1F
100
AcDbEntity
  8
Mittelpunktmarkierung_TC_020513_DIN_
  6
CHAIN
 62
     7
100
AcDbPolyline
 90
        2
 70
     0
 43
0.25
 10
137.676753926015
 20
144.4558373871169
 10
137.676753926015
 20
134.9558373871169
  0
LWPOLYLINE
  5
5B4
330
1F
100
AcDbEntity
  8
Mittelpunktmarkierung_TC_020513_DIN_
  6
CHAIN
 62
     7
100
AcDbPolyline
 90
        2
 70
     0
 43
0.25
 10
137.676753926015
 20
134.9558373871169
 10
128.176753926015
 20
134.9558373871169
  0
LWPOLYLINE
  5
5B5
330
1F
100
AcDbEntity
  8
Mittelpunktmarkierung_TC_020513_DIN_
  6
CHAIN
 62
     7
100
AcDbPolyline
 90
        2
 70
     0
 43
0.25
 10
244.319556064479
 20
110.4558373871169
 10
244.319556064479
 20
65.45583738711647
  0
LWPOLYLINE
  5
5B6
330
1F
100
AcDbEntity
  8
Mittelpunktmarkierung_TC_020513_DIN_
  6
CHAIN
 62
     7
100
AcDbPolyline
 90
        2
 70
     0
 43
0.25
 10
266.819556064479
 20
87.95583738711647
 10
221.819556064479
 20
87.95583738711647
  0
LWPOLYLINE
  5
5B7
330
1F
100
AcDbEntity
  8
Mittellinie_TC_020513_DIN_
  6
CHAIN
 62
     7
100
AcDbPolyline
 90
        2
 70
     0
 43
0.25
 10
244.319556064484
 20
59.90869736674168
 10
244.319556064484
 20
151.2019383831219
  0
LWPOLYLINE
  5
5B8
330
1F
100
AcDbEntity
  8
Mittellinie_TC_020513_DIN_
  6
CHAIN
 62
     7
100
AcDbPolyline
 90
        2
 70
     0
 43
0.25
 10
268.319556064489
 20
134.9558373871169
 10
273.919556064489
 20
134.9558373871169
  0
LWPOLYLINE
  5
5B9
330
1F
100
AcDbEntity
  8
Mittellinie_TC_020513_DIN_
  6
CHAIN
 62
     7
100
AcDbPolyline
 90
        2
 70
     0
 43
0.25
 10
214.719556064489
 20
134.9558373871169
 10
220.319556064489
 20
134.9558373871169
  0
LWPOLYLINE
  5
5BA
330
1F
100
AcDbEntity
  8
Mittellinie_TC_020513_DIN_
  6
CHAIN
 62
     7
100
AcDbPolyline
 90
        2
 70
     0
 43
0.25
 10
266.8195560644809
 20
59.45583738711648
 10
266.8195560644809
 20
68.45583738711647
  0
LWPOLYLINE
  5
5BB
330
1F
100
AcDbEntity
  8
Mittellinie_TC_020513_DIN_
  6
CHAIN
 62
     7
100
AcDbPolyline
 90
        2
 70
     0
 43
0.25
 10
221.8195560644809
 20
59.45583738711648
 10
221.8195560644809
 20
68.45583738711647
  0
LWPOLYLINE
  5
5BC
330
1F
100
AcDbEntity
  8
Mittellinie_TC_020513_DIN_
  6
CHAIN
 62
     7
100
AcDbPolyline
 90
        2
 70
     0
 43
0.25
 10
100.1767539260148
 20
78.13386974347168
 10
100.1767539260148
 20
145.7769892227589
  0
LWPOLYLINE
  5
5BD
330
1F
100
AcDbEntity
  8
Mittellinie_TC_020513_DIN_
  6
CHAIN
 62
     7
100
AcDbPolyline
 90
        2
 70
     0
 43
0.25
 10
156.676753926015
 20
87.95583738711647
 10
174.676753926015
 20
87.95583738711647
  0
LWPOLYLINE
  5
5BE
330
1F
100
AcDbEntity
  8
Mittellinie_TC_020513_DIN_
  6
CHAIN
 62
     7
100
AcDbPolyline
 90
        2
 70
     0
 43
0.25
 10
166.176753926015
 20
59.45583738711648
 10
166.176753926015
 20
68.45583738711647
  0
LWPOLYLINE
  5
5BF
330
1F
100
AcDbEntity
  8
Mittellinie_TC_020513_DIN_
  6
CHAIN
 62
     7
100
AcDbPolyline
 90
        2
 70
     0
 43
0.25
 10
34.30175392601478
 20
59.45583738711648
 10
34.30175392601478
 20
68.45583738711647
  0
LWPOLYLINE
  5
5C0
330
1F
100
AcDbEntity
  8
Mittellinie_TC_020513_DIN_
  6
CHAIN
 62
     7
100
AcDbPolyline
 90
        2
 70
     0
 43
0.25
 10
25.67675392601478
 20
87.95583738711647
 10
43.67675392601478
 20
87.95583738711647
  0
LWPOLYLINE
  5
5C1
330
1F
100
AcDbEntity
  8
Sichtbare_Kanten_TC_020513_DIN_
  6
Continuous
 62
     7
100
AcDbPolyline
 90
        2
 70
     0
 43
0.5
 10
223.3195560644809
 20
142.3168227221119
 10
220.519556064485
 20
142.3168227221119
  0
LWPOLYLINE
  5
5C2
330
1F
100
AcDbEntity
  8
Sichtbare_Kanten_TC_020513_DIN_
  6
Continuous
 62
     7
100
AcDbPolyline
 90
        2
 70
     0
 43
0.5
 10
220.950495536138
 20
152.3168227221119
 10
221.946357907562
 20
152.3168227221119
  0
LWPOLYLINE
  5
5C3
330
1F
100
AcDbEntity
  8
Sichtbare_Kanten_TC_020513_DIN_
  6
Continuous
 62
     7
100
AcDbPolyline
 90
        2
 70
     0
 43
0.5
 10
222.632956809873
 20
152.3168226661999
 10
221.946358985776
 20
152.3168226661999
  0
LWPOLYLINE
  5
5C4
330
1F
100
AcDbEntity
  8
Sichtbare_Kanten_TC_020513_DIN_
  6
Continuous
 62
     7
100
AcDbPolyline
 90
        2
 70
     0
 43
0.5
 10
220.519556064482
 20
152.7520789713079
 10
221.303554151705
 20
152.7520789713079
  0
LWPOLYLINE
  5
5C5
330
1F
100
AcDbEntity
  8
Sichtbare_Kanten_TC_020513_DIN_
  6
Continuous
 62
     7
100
AcDbPolyline
 90
        2
 70
     0
 43
0.5
 10
221.303554151705
 20
152.7520789713079
 10
221.919556064482
 20
152.7520789713079
  0
LWPOLYLINE
  5
5C6
330
1F
100
AcDbEntity
  8
Sichtbare_Kanten_TC_020513_DIN_
  6
Continuous
 62
     7
100
AcDbPolyline
 90
        2
 70
     0
 43
0.5
 10
220.519556064485
 20
142.3168227221119
 10
220.519556064482
 20
152.7520789713079
  0
LWPOLYLINE
  5
5C7
330
1F
100
AcDbEntity
  8
Sichtbare_Kanten_TC_020513_DIN_
  6
Continuous
 62
     7
100
AcDbPolyline
 90
        2
 70
     0
 43
0.5
 10
228.6317737089549
 20
140.1649801271769
 10
228.631773708956
 20
139.9046456496249
  0
LWPOLYLINE
  5
5C8
330
1F
100
AcDbEntity
  8
Sichtbare_Kanten_TC_020513_DIN_
  6
Continuous
 62
     7
100
AcDbPolyline
 90
        2
 70
     0
 43
0.5
 10
228.631773708956
 20
139.9046456496249
 10
228.631773708956
 20
139.5733145607399
  0
LWPOLYLINE
  5
5C9
330
1F
100
AcDbEntity
  8
Sichtbare_Kanten_TC_020513_DIN_
  6
Continuous
 62
     7
100
AcDbPolyline
 90
        2
 70
     0
 43
0.5
 10
229.897342989998
 20
153.5334600247019
 10
229.897342989998
 20
152.7494611549849
  0
LWPOLYLINE
  5
5CA
330
1F
100
AcDbEntity
  8
Sichtbare_Kanten_TC_020513_DIN_
  6
Continuous
 62
     7
100
AcDbPolyline
 90
        2
 70
     0
 43
0.5
 10
229.897342989998
 20
152.7494611549849
 10
229.897342989998
 20
152.1334600247019
  0
LWPOLYLINE
  5
5CB
330
1F
100
AcDbEntity
  8
Sichtbare_Kanten_TC_020513_DIN_
  6
Continuous
 62
     7
100
AcDbPolyline
 90
        2
 70
     0
 43
0.5
 10
258.741769138963
 20
152.1334600247019
 10
258.741769138963
 20
152.7494611549829
  0
LWPOLYLINE
  5
5CC
330
1F
100
AcDbEntity
  8
Sichtbare_Kanten_TC_020513_DIN_
  6
Continuous
 62
     7
100
AcDbPolyline
 90
        2
 70
     0
 43
0.5
 10
258.741769138963
 20
152.7494611549829
 10
258.741769138963
 20
153.5334600247019
  0
LWPOLYLINE
  5
5CD
330
1F
100
AcDbEntity
  8
Sichtbare_Kanten_TC_020513_DIN_
  6
Continuous
 62
     7
100
AcDbPolyline
 90
        2
 70
     0
 43
0.5
 10
268.119556064482
 20
152.7520789713079
 10
268.119556064485
 20
142.3168227221119
  0
LWPOLYLINE
  5
5CE
330
1F
100
AcDbEntity
  8
Sichtbare_Kanten_TC_020513_DIN_
  6
Continuous
 62
     7
100
AcDbPolyline
 90
        2
 70
     0
 43
0.5
 10
268.119556064485
 20
142.3168227221119
 10
265.3195560644809
 20
142.3168227221119
  0
LWPOLYLINE
  5
5CF
330
1F
100
AcDbEntity
  8
Sichtbare_Kanten_TC_020513_DIN_
  6
Continuous
 62
     7
100
AcDbPolyline
 90
        2
 70
     0
 43
0.5
 10
266.6927542213999
 20
152.3168227221119
 10
267.688616592825
 20
152.3168227221119
  0
LWPOLYLINE
  5
5D0
330
1F
100
AcDbEntity
  8
Sichtbare_Kanten_TC_020513_DIN_
  6
Continuous
 62
     7
100
AcDbPolyline
 90
        2
 70
     0
 43
0.5
 10
266.7195560644819
 20
152.7520789713079
 10
267.335557977258
 20
152.7520789713079
  0
LWPOLYLINE
  5
5D1
330
1F
100
AcDbEntity
  8
Sichtbare_Kanten_TC_020513_DIN_
  6
Continuous
 62
     7
100
AcDbPolyline
 90
        2
 70
     0
 43
0.5
 10
267.335557977258
 20
152.7520789713079
 10
268.119556064482
 20
152.7520789713079
  0
LWPOLYLINE
  5
5D2
330
1F
100
AcDbEntity
  8
Sichtbare_Kanten_TC_020513_DIN_
  6
Continuous
 62
     7
100
AcDbPolyline
 90
        2
 70
     0
 43
0.5
 10
266.006155319089
 20
152.3168226661999
 10
266.692753143186
 20
152.3168226661999
  0
LWPOLYLINE
  5
5D3
330
1F
100
AcDbEntity
  8
Sichtbare_Kanten_TC_020513_DIN_
  6
Continuous
 62
     7
100
AcDbPolyline
 90
        2
 70
     0
 43
0.5
 10
260.0073384200069
 20
139.5733145607399
 10
260.007338420006
 20
139.9046456496229
  0
LWPOLYLINE
  5
5D4
330
1F
100
AcDbEntity
  8
Sichtbare_Kanten_TC_020513_DIN_
  6
Continuous
 62
     7
100
AcDbPolyline
 90
        2
 70
     0
 43
0.5
 10
260.007338420006
 20
139.9046456496229
 10
260.007338420006
 20
140.1649801271769
  0
LWPOLYLINE
  5
5D5
330
1F
100
AcDbEntity
  8
Sichtbare_Kanten_TC_020513_DIN_
  6
Continuous
 62
     7
100
AcDbPolyline
 90
        2
 70
     0
 43
0.5
 10
269.419556064489
 20
141.9558373871169
 10
270.819556064489
 20
141.9558373871169
  0
LWPOLYLINE
  5
5D6
330
1F
100
AcDbEntity
  8
Sichtbare_Kanten_TC_020513_DIN_
  6
Continuous
 62
     7
100
AcDbPolyline
 90
        2
 70
     0
 43
0.5
 10
269.4195560644899
 20
120.2218969625109
 10
270.81955606449
 20
120.2218969625109
  0
LWPOLYLINE
  5
5D7
330
1F
100
AcDbEntity
  8
Sichtbare_Kanten_TC_020513_DIN_
  6
Continuous
 62
     7
100
AcDbPolyline
 90
        2
 70
     0
 43
0.5
 10
217.819556064489
 20
141.9558373871169
 10
219.219556064489
 20
141.9558373871169
  0
LWPOLYLINE
  5
5D8
330
1F
100
AcDbEntity
  8
Sichtbare_Kanten_TC_020513_DIN_
  6
Continuous
 62
     7
100
AcDbPolyline
 90
        2
 70
     0
 43
0.5
 10
217.81955606449
 20
120.2218969625109
 10
219.21955606449
 20
120.2218969625109
  0
LWPOLYLINE
  5
5D9
330
1F
100
AcDbEntity
  8
Sichtbare_Kanten_TC_020513_DIN_
  6
Continuous
 62
     7
100
AcDbPolyline
 90
        2
 70
     0
 43
0.5
 10
232.192171014334
 20
133.3131328148739
 10
256.446941114625
 20
133.3131328148739
  0
LWPOLYLINE
  5
5DA
330
1F
100
AcDbEntity
  8
Sichtbare_Kanten_TC_020513_DIN_
  6
Continuous
 62
     7
100
AcDbPolyline
 90
        2
 70
     0
 43
0.5
 10
230.260319361757
 20
134.6566089569279
 10
228.6317737089549
 20
140.1649801271769
  0
LWPOLYLINE
  5
5DB
330
1F
100
AcDbEntity
  8
Sichtbare_Kanten_TC_020513_DIN_
  6
Continuous
 62
     7
100
AcDbPolyline
 90
        2
 70
     0
 43
0.5
 10
220.4195560644899
 20
124.7181824721089
 10
219.485567493074
 20
124.7181824721089
  0
LWPOLYLINE
  5
5DC
330
1F
100
AcDbEntity
  8
Sichtbare_Kanten_TC_020513_DIN_
  6
Continuous
 62
     7
100
AcDbPolyline
 90
        2
 70
     0
 43
0.5
 10
217.481901149482
 20
124.7181824721089
 10
217.481901149482
 20
123.3181824721089
  0
LWPOLYLINE
  5
5DD
330
1F
100
AcDbEntity
  8
Sichtbare_Kanten_TC_020513_DIN_
  6
Continuous
 62
     7
100
AcDbPolyline
 90
        2
 70
     0
 43
0.5
 10
217.481901149482
 20
124.7181824721089
 10
217.81955606449
 20
124.7181824721089
  0
LWPOLYLINE
  5
5DE
330
1F
100
AcDbEntity
  8
Sichtbare_Kanten_TC_020513_DIN_
  6
Continuous
 62
     7
100
AcDbPolyline
 90
        2
 70
     0
 43
0.5
 10
217.81955606449
 20
123.3181824721089
 10
217.481901149482
 20
123.3181824721089
  0
LWPOLYLINE
  5
5DF
330
1F
100
AcDbEntity
  8
Sichtbare_Kanten_TC_020513_DIN_
  6
Continuous
 62
     7
100
AcDbPolyline
 90
        2
 70
     0
 43
0.5
 10
220.519556064488
 20
159.9558373871169
 10
221.919556064488
 20
159.9558373871169
  0
LWPOLYLINE
  5
5E0
330
1F
100
AcDbEntity
  8
Sichtbare_Kanten_TC_020513_DIN_
  6
Continuous
 62
     7
100
AcDbPolyline
 90
        2
 70
     0
 43
0.5
 10
220.51955606449
 20
124.9558373871169
 10
221.919556064489
 20
124.9558373871169
  0
LWPOLYLINE
  5
5E1
330
1F
100
AcDbEntity
  8
Sichtbare_Kanten_TC_020513_DIN_
  6
Continuous
 62
     7
100
AcDbPolyline
 90
        2
 70
     0
 43
0.5
 10
229.897342989998
 20
152.1334600247019
 10
231.219478096729
 20
152.1334600247019
  0
LWPOLYLINE
  5
5E2
330
1F
100
AcDbEntity
  8
Sichtbare_Kanten_TC_020513_DIN_
  6
Continuous
 62
     7
100
AcDbPolyline
 90
        2
 70
     0
 43
0.5
 10
233.151329749307
 20
152.1334600247019
 10
231.219478096729
 20
152.1334600247019
  0
LWPOLYLINE
  5
5E3
330
1F
100
AcDbEntity
  8
Sichtbare_Kanten_TC_020513_DIN_
  6
Continuous
 62
     7
100
AcDbPolyline
 90
        2
 70
     0
 43
0.5
 10
220.519556064483
 20
154.7992986559069
 10
220.519556064488
 20
159.9558373871169
  0
LWPOLYLINE
  5
5E4
330
1F
100
AcDbEntity
  8
Sichtbare_Kanten_TC_020513_DIN_
  6
Continuous
 62
     7
100
AcDbPolyline
 90
        2
 70
     0
 43
0.5
 10
220.519556064483
 20
154.7992986559069
 10
220.519556064482
 20
152.7520789713079
  0
LWPOLYLINE
  5
5E5
330
1F
100
AcDbEntity
  8
Sichtbare_Kanten_TC_020513_DIN_
  6
Continuous
 62
     7
100
AcDbPolyline
 90
        2
 70
     0
 43
0.5
 10
220.519556064485
 20
142.3168227221119
 10
220.519556064486
 20
138.3479871502089
  0
LWPOLYLINE
  5
5E6
330
1F
100
AcDbEntity
  8
Sichtbare_Kanten_TC_020513_DIN_
  6
Continuous
 62
     7
100
AcDbPolyline
 90
        2
 70
     0
 43
0.5
 10
220.519556064486
 20
138.3479871502089
 10
220.519556064486
 20
137.9994152584899
  0
LWPOLYLINE
  5
5E7
330
1F
100
AcDbEntity
  8
Sichtbare_Kanten_TC_020513_DIN_
  6
Continuous
 62
     7
100
AcDbPolyline
 90
        2
 70
     0
 43
0.5
 10
220.519556064486
 20
137.9994152584899
 10
220.519556064487
 20
133.1714357023879
  0
LWPOLYLINE
  5
5E8
330
1F
100
AcDbEntity
  8
Sichtbare_Kanten_TC_020513_DIN_
  6
Continuous
 62
     7
100
AcDbPolyline
 90
        2
 70
     0
 43
0.5
 10
220.51955606449
 20
124.9558373871169
 10
220.519556064487
 20
133.1714357023879
  0
LWPOLYLINE
  5
5E9
330
1F
100
AcDbEntity
  8
Sichtbare_Kanten_TC_020513_DIN_
  6
Continuous
 62
     7
100
AcDbPolyline
 90
        2
 70
     0
 43
0.5
 10
220.51955606449
 20
124.9558373871169
 10
220.51955606449
 20
124.8181824721089
  0
LWPOLYLINE
  5
5EA
330
1F
100
AcDbEntity
  8
Sichtbare_Kanten_TC_020513_DIN_
  6
Continuous
 62
     7
100
AcDbPolyline
 90
        2
 70
     0
 43
0.5
 10
221.9195560644899
 20
124.8181824721089
 10
221.919556064489
 20
124.9558373871169
  0
LWPOLYLINE
  5
5EB
330
1F
100
AcDbEntity
  8
Sichtbare_Kanten_TC_020513_DIN_
  6
Continuous
 62
     7
100
AcDbPolyline
 90
        2
 70
     0
 43
0.5
 10
221.919556064487
 20
133.1714357023879
 10
221.919556064489
 20
124.9558373871169
  0
LWPOLYLINE
  5
5EC
330
1F
100
AcDbEntity
  8
Sichtbare_Kanten_TC_020513_DIN_
  6
Continuous
 62
     7
100
AcDbPolyline
 90
        2
 70
     0
 43
0.5
 10
221.919556064487
 20
133.1714357023879
 10
221.919556064486
 20
137.9994152584899
  0
LWPOLYLINE
  5
5ED
330
1F
100
AcDbEntity
  8
Sichtbare_Kanten_TC_020513_DIN_
  6
Continuous
 62
     7
100
AcDbPolyline
 90
        2
 70
     0
 43
0.5
 10
221.919556064486
 20
137.9994152584899
 10
221.919556064486
 20
138.3479871502089
  0
LWPOLYLINE
  5
5EE
330
1F
100
AcDbEntity
  8
Sichtbare_Kanten_TC_020513_DIN_
  6
Continuous
 62
     7
100
AcDbPolyline
 90
        2
 70
     0
 43
0.5
 10
221.919556064486
 20
138.3479871502089
 10
221.9195560644849
 20
142.3168227221119
  0
LWPOLYLINE
  5
5EF
330
1F
100
AcDbEntity
  8
Sichtbare_Kanten_TC_020513_DIN_
  6
Continuous
 62
     7
100
AcDbPolyline
 90
        2
 70
     0
 43
0.5
 10
221.919556064482
 20
152.7520789713079
 10
221.919556064483
 20
154.7992986559069
  0
LWPOLYLINE
  5
5F0
330
1F
100
AcDbEntity
  8
Sichtbare_Kanten_TC_020513_DIN_
  6
Continuous
 62
     7
100
AcDbPolyline
 90
        2
 70
     0
 43
0.5
 10
221.919556064488
 20
159.9558373871169
 10
221.919556064483
 20
154.7992986559069
  0
LWPOLYLINE
  5
5F1
330
1F
100
AcDbEntity
  8
Sichtbare_Kanten_TC_020513_DIN_
  6
Continuous
 62
     7
100
AcDbPolyline
 90
        2
 70
     0
 43
0.5
 10
227.786193367072
 20
142.3168227221119
 10
223.3195560644809
 20
142.3168227221119
  0
LWPOLYLINE
  5
5F2
330
1F
100
AcDbEntity
  8
Sichtbare_Kanten_TC_020513_DIN_
  6
Continuous
 62
     7
100
AcDbPolyline
 90
        2
 70
     0
 43
0.5
 10
223.3195560644809
 20
151.6410328418819
 10
224.130963502617
 20
150.6740351124249
  0
LWPOLYLINE
  5
5F3
330
1F
100
AcDbEntity
  8
Sichtbare_Kanten_TC_020513_DIN_
  6
Continuous
 62
     7
100
AcDbPolyline
 90
        2
 70
     0
 43
0.5
 10
224.8970079457359
 20
150.3168227221119
 10
227.786193367072
 20
150.3168227221119
  0
LWPOLYLINE
  5
5F4
330
1F
100
AcDbEntity
  8
Sichtbare_Kanten_TC_020513_DIN_
  6
Continuous
 62
     7
100
AcDbPolyline
 90
        2
 70
     0
 43
0.5
 10
228.396073288902
 20
140.7566456936139
 10
228.027674823644
 20
142.1315274833869
  0
LWPOLYLINE
  5
5F5
330
1F
100
AcDbEntity
  8
Sichtbare_Kanten_TC_020513_DIN_
  6
Continuous
 62
     7
100
AcDbPolyline
 90
        2
 70
     0
 43
0.5
 10
228.631773708956
 20
139.5733145607399
 10
230.260319361757
 20
134.0649433904909
  0
LWPOLYLINE
  5
5F6
330
1F
100
AcDbEntity
  8
Sichtbare_Kanten_TC_020513_DIN_
  6
Continuous
 62
     7
100
AcDbPolyline
 90
        2
 70
     0
 43
0.5
 10
256.4469411146259
 20
132.7214672484369
 10
232.192171014335
 20
132.7214672484369
  0
LWPOLYLINE
  5
5F7
330
1F
100
AcDbEntity
  8
Sichtbare_Kanten_TC_020513_DIN_
  6
Continuous
 62
     7
100
AcDbPolyline
 90
        2
 70
     0
 43
0.5
 10
231.219478096729
 20
153.5334600247019
 10
233.151329749307
 20
153.5334600247019
  0
LWPOLYLINE
  5
5F8
330
1F
100
AcDbEntity
  8
Sichtbare_Kanten_TC_020513_DIN_
  6
Continuous
 62
     7
100
AcDbPolyline
 90
        2
 70
     0
 43
0.5
 10
231.219478096729
 20
153.5334600247019
 10
229.897342989998
 20
153.5334600247019
  0
LWPOLYLINE
  5
5F9
330
1F
100
AcDbEntity
  8
Sichtbare_Kanten_TC_020513_DIN_
  6
Continuous
 62
     7
100
AcDbPolyline
 90
        2
 70
     0
 43
0.5
 10
233.151329749307
 20
152.1334600247019
 10
255.48778237965
 20
152.1334600247019
  0
LWPOLYLINE
  5
5FA
330
1F
100
AcDbEntity
  8
Sichtbare_Kanten_TC_020513_DIN_
  6
Continuous
 62
     7
100
AcDbPolyline
 90
        2
 70
     0
 43
0.5
 10
255.48778237965
 20
153.5334600247019
 10
233.151329749307
 20
153.5334600247019
  0
LWPOLYLINE
  5
5FB
330
1F
100
AcDbEntity
  8
Sichtbare_Kanten_TC_020513_DIN_
  6
Continuous
 62
     7
100
AcDbPolyline
 90
        2
 70
     0
 43
0.5
 10
260.0073384200069
 20
139.5733145607399
 10
258.378792767204
 20
134.0649433904909
  0
LWPOLYLINE
  5
5FC
330
1F
100
AcDbEntity
  8
Sichtbare_Kanten_TC_020513_DIN_
  6
Continuous
 62
     7
100
AcDbPolyline
 90
        2
 70
     0
 43
0.5
 10
258.378792767204
 20
134.6566089569279
 10
260.007338420006
 20
140.1649801271769
  0
LWPOLYLINE
  5
5FD
330
1F
100
AcDbEntity
  8
Sichtbare_Kanten_TC_020513_DIN_
  6
Continuous
 62
     7
100
AcDbPolyline
 90
        2
 70
     0
 43
0.5
 10
271.157210979497
 20
124.7181824721089
 10
270.81955606449
 20
124.7181824721089
  0
LWPOLYLINE
  5
5FE
330
1F
100
AcDbEntity
  8
Sichtbare_Kanten_TC_020513_DIN_
  6
Continuous
 62
     7
100
AcDbPolyline
 90
        2
 70
     0
 43
0.5
 10
271.157210979497
 20
124.7181824721089
 10
271.157210979497
 20
123.3181824721089
  0
LWPOLYLINE
  5
5FF
330
1F
100
AcDbEntity
  8
Sichtbare_Kanten_TC_020513_DIN_
  6
Continuous
 62
     7
100
AcDbPolyline
 90
        2
 70
     0
 43
0.5
 10
270.81955606449
 20
123.3181824721089
 10
271.157210979497
 20
123.3181824721089
  0
LWPOLYLINE
  5
600
330
1F
100
AcDbEntity
  8
Sichtbare_Kanten_TC_020513_DIN_
  6
Continuous
 62
     7
100
AcDbPolyline
 90
        2
 70
     0
 43
0.5
 10
268.21955606449
 20
124.7181824721089
 10
269.153544635905
 20
124.7181824721089
  0
LWPOLYLINE
  5
601
330
1F
100
AcDbEntity
  8
Sichtbare_Kanten_TC_020513_DIN_
  6
Continuous
 62
     7
100
AcDbPolyline
 90
        2
 70
     0
 43
0.5
 10
258.741769138963
 20
152.1334600247019
 10
257.4196340322291
 20
152.1334600247019
  0
LWPOLYLINE
  5
602
330
1F
100
AcDbEntity
  8
Sichtbare_Kanten_TC_020513_DIN_
  6
Continuous
 62
     7
100
AcDbPolyline
 90
        2
 70
     0
 43
0.5
 10
257.4196340322291
 20
153.5334600247019
 10
258.741769138963
 20
153.5334600247019
  0
LWPOLYLINE
  5
603
330
1F
100
AcDbEntity
  8
Sichtbare_Kanten_TC_020513_DIN_
  6
Continuous
 62
     7
100
AcDbPolyline
 90
        2
 70
     0
 43
0.5
 10
255.48778237965
 20
152.1334600247019
 10
257.4196340322291
 20
152.1334600247019
  0
LWPOLYLINE
  5
604
330
1F
100
AcDbEntity
  8
Sichtbare_Kanten_TC_020513_DIN_
  6
Continuous
 62
     7
100
AcDbPolyline
 90
        2
 70
     0
 43
0.5
 10
257.4196340322291
 20
153.5334600247019
 10
255.48778237965
 20
153.5334600247019
  0
LWPOLYLINE
  5
605
330
1F
100
AcDbEntity
  8
Sichtbare_Kanten_TC_020513_DIN_
  6
Continuous
 62
     7
100
AcDbPolyline
 90
        2
 70
     0
 43
0.5
 10
265.3195560644809
 20
151.6410328418819
 10
264.508148626345
 20
150.6740351124249
  0
LWPOLYLINE
  5
606
330
1F
100
AcDbEntity
  8
Sichtbare_Kanten_TC_020513_DIN_
  6
Continuous
 62
     7
100
AcDbPolyline
 90
        2
 70
     0
 43
0.5
 10
260.85291876189
 20
142.3168227221119
 10
265.3195560644809
 20
142.3168227221119
  0
LWPOLYLINE
  5
607
330
1F
100
AcDbEntity
  8
Sichtbare_Kanten_TC_020513_DIN_
  6
Continuous
 62
     7
100
AcDbPolyline
 90
        2
 70
     0
 43
0.5
 10
260.24303884006
 20
140.7566456936139
 10
260.611437305318
 20
142.1315274833869
  0
LWPOLYLINE
  5
608
330
1F
100
AcDbEntity
  8
Sichtbare_Kanten_TC_020513_DIN_
  6
Continuous
 62
     7
100
AcDbPolyline
 90
        2
 70
     0
 43
0.5
 10
263.7421041832259
 20
150.3168227221119
 10
260.85291876189
 20
150.3168227221119
  0
LWPOLYLINE
  5
609
330
1F
100
AcDbEntity
  8
Sichtbare_Kanten_TC_020513_DIN_
  6
Continuous
 62
     7
100
AcDbPolyline
 90
        2
 70
     0
 43
0.5
 10
268.1195560644879
 20
159.9558373871169
 10
266.7195560644881
 20
159.9558373871169
  0
LWPOLYLINE
  5
60A
330
1F
100
AcDbEntity
  8
Sichtbare_Kanten_TC_020513_DIN_
  6
Continuous
 62
     7
100
AcDbPolyline
 90
        2
 70
     0
 43
0.5
 10
268.1195560644891
 20
124.9558373871169
 10
266.71955606449
 20
124.9558373871169
  0
LWPOLYLINE
  5
60B
330
1F
100
AcDbEntity
  8
Sichtbare_Kanten_TC_020513_DIN_
  6
Continuous
 62
     7
100
AcDbPolyline
 90
        2
 70
     0
 43
0.5
 10
268.1195560644891
 20
124.9558373871169
 10
268.11955606449
 20
124.8181824721089
  0
LWPOLYLINE
  5
60C
330
1F
100
AcDbEntity
  8
Sichtbare_Kanten_TC_020513_DIN_
  6
Continuous
 62
     7
100
AcDbPolyline
 90
        2
 70
     0
 43
0.5
 10
268.1195560644891
 20
124.9558373871169
 10
268.119556064487
 20
133.1714357023879
  0
LWPOLYLINE
  5
60D
330
1F
100
AcDbEntity
  8
Sichtbare_Kanten_TC_020513_DIN_
  6
Continuous
 62
     7
100
AcDbPolyline
 90
        2
 70
     0
 43
0.5
 10
268.119556064487
 20
137.9994152584899
 10
268.119556064487
 20
133.1714357023879
  0
LWPOLYLINE
  5
60E
330
1F
100
AcDbEntity
  8
Sichtbare_Kanten_TC_020513_DIN_
  6
Continuous
 62
     7
100
AcDbPolyline
 90
        2
 70
     0
 43
0.5
 10
268.119556064486
 20
138.3479871502089
 10
268.119556064487
 20
137.9994152584899
  0
LWPOLYLINE
  5
60F
330
1F
100
AcDbEntity
  8
Sichtbare_Kanten_TC_020513_DIN_
  6
Continuous
 62
     7
100
AcDbPolyline
 90
        2
 70
     0
 43
0.5
 10
268.119556064485
 20
142.3168227221119
 10
268.119556064486
 20
138.3479871502089
  0
LWPOLYLINE
  5
610
330
1F
100
AcDbEntity
  8
Sichtbare_Kanten_TC_020513_DIN_
  6
Continuous
 62
     7
100
AcDbPolyline
 90
        2
 70
     0
 43
0.5
 10
268.1195560644829
 20
154.7992986559069
 10
268.1195560644879
 20
159.9558373871169
  0
LWPOLYLINE
  5
611
330
1F
100
AcDbEntity
  8
Sichtbare_Kanten_TC_020513_DIN_
  6
Continuous
 62
     7
100
AcDbPolyline
 90
        2
 70
     0
 43
0.5
 10
268.1195560644829
 20
154.7992986559069
 10
268.119556064482
 20
152.7520789713079
  0
LWPOLYLINE
  5
612
330
1F
100
AcDbEntity
  8
Sichtbare_Kanten_TC_020513_DIN_
  6
Continuous
 62
     7
100
AcDbPolyline
 90
        2
 70
     0
 43
0.5
 10
266.7195560644881
 20
159.9558373871169
 10
266.7195560644831
 20
154.7992986559069
  0
LWPOLYLINE
  5
613
330
1F
100
AcDbEntity
  8
Sichtbare_Kanten_TC_020513_DIN_
  6
Continuous
 62
     7
100
AcDbPolyline
 90
        2
 70
     0
 43
0.5
 10
266.7195560644819
 20
152.7520789713079
 10
266.7195560644831
 20
154.7992986559069
  0
LWPOLYLINE
  5
614
330
1F
100
AcDbEntity
  8
Sichtbare_Kanten_TC_020513_DIN_
  6
Continuous
 62
     7
100
AcDbPolyline
 90
        2
 70
     0
 43
0.5
 10
266.719556064486
 20
138.3479871502089
 10
266.719556064485
 20
142.3168227221119
  0
LWPOLYLINE
  5
615
330
1F
100
AcDbEntity
  8
Sichtbare_Kanten_TC_020513_DIN_
  6
Continuous
 62
     7
100
AcDbPolyline
 90
        2
 70
     0
 43
0.5
 10
266.719556064486
 20
137.9994152584899
 10
266.719556064486
 20
138.3479871502089
  0
LWPOLYLINE
  5
616
330
1F
100
AcDbEntity
  8
Sichtbare_Kanten_TC_020513_DIN_
  6
Continuous
 62
     7
100
AcDbPolyline
 90
        2
 70
     0
 43
0.5
 10
266.719556064486
 20
133.1714357023879
 10
266.719556064486
 20
137.9994152584899
  0
LWPOLYLINE
  5
617
330
1F
100
AcDbEntity
  8
Sichtbare_Kanten_TC_020513_DIN_
  6
Continuous
 62
     7
100
AcDbPolyline
 90
        2
 70
     0
 43
0.5
 10
266.719556064486
 20
133.1714357023879
 10
266.71955606449
 20
124.9558373871169
  0
LWPOLYLINE
  5
618
330
1F
100
AcDbEntity
  8
Sichtbare_Kanten_TC_020513_DIN_
  6
Continuous
 62
     7
100
AcDbPolyline
 90
        2
 70
     0
 43
0.5
 10
266.71955606449
 20
124.8181824721089
 10
266.71955606449
 20
124.9558373871169
  0
LWPOLYLINE
  5
619
330
1F
100
AcDbEntity
  8
Sichtbare_Kanten_TC_020513_DIN_
  6
Continuous
 62
     7
100
AcDbPolyline
 90
        2
 70
     0
 43
0.5
 10
270.8195560644859
 20
135.9558373871169
 10
269.419556064482
 20
135.9558373871169
  0
LWPOLYLINE
  5
61A
330
1F
100
AcDbEntity
  8
Sichtbare_Kanten_TC_020513_DIN_
  6
Continuous
 62
     7
100
AcDbPolyline
 90
        2
 70
     0
 43
0.5
 10
270.8195560644859
 20
125.5392000845259
 10
270.81955606448
 20
127.9558373871169
  0
LWPOLYLINE
  5
61B
330
1F
100
AcDbEntity
  8
Sichtbare_Kanten_TC_020513_DIN_
  6
Continuous
 62
     7
100
AcDbPolyline
 90
        2
 70
     0
 43
0.5
 10
270.8195560644859
 20
135.9558373871169
 10
270.81955606448
 20
127.9558373871169
  0
LWPOLYLINE
  5
61C
330
1F
100
AcDbEntity
  8
Sichtbare_Kanten_TC_020513_DIN_
  6
Continuous
 62
     7
100
AcDbPolyline
 90
        2
 70
     0
 43
0.5
 10
270.8195560644859
 20
135.9558373871169
 10
270.8195560644859
 20
136.1342496370239
  0
LWPOLYLINE
  5
61D
330
1F
100
AcDbEntity
  8
Sichtbare_Kanten_TC_020513_DIN_
  6
Continuous
 62
     7
100
AcDbPolyline
 90
        2
 70
     0
 43
0.5
 10
270.819556064488
 20
141.2478131006959
 10
270.8195560644859
 20
136.1342496370239
  0
LWPOLYLINE
  5
61E
330
1F
100
AcDbEntity
  8
Sichtbare_Kanten_TC_020513_DIN_
  6
Continuous
 62
     7
100
AcDbPolyline
 90
        2
 70
     0
 43
0.5
 10
270.819556064489
 20
141.9558373871169
 10
270.819556064488
 20
141.2478131006959
  0
LWPOLYLINE
  5
61F
330
1F
100
AcDbEntity
  8
Sichtbare_Kanten_TC_020513_DIN_
  6
Continuous
 62
     7
100
AcDbPolyline
 90
        2
 70
     0
 43
0.5
 10
270.8195560644859
 20
125.5392000845259
 10
270.81955606449
 20
120.2218969625109
  0
LWPOLYLINE
  5
620
330
1F
100
AcDbEntity
  8
Sichtbare_Kanten_TC_020513_DIN_
  6
Continuous
 62
     7
100
AcDbPolyline
 90
        2
 70
     0
 43
0.5
 10
269.419556064487
 20
123.1143289539289
 10
269.4195560644899
 20
120.2218969625109
  0
LWPOLYLINE
  5
621
330
1F
100
AcDbEntity
  8
Sichtbare_Kanten_TC_020513_DIN_
  6
Continuous
 62
     7
100
AcDbPolyline
 90
        2
 70
     0
 43
0.5
 10
269.419556064489
 20
141.9558373871169
 10
269.419556064488
 20
141.2478131006959
  0
LWPOLYLINE
  5
622
330
1F
100
AcDbEntity
  8
Sichtbare_Kanten_TC_020513_DIN_
  6
Continuous
 62
     7
100
AcDbPolyline
 90
        2
 70
     0
 43
0.5
 10
269.419556064488
 20
141.2478131006959
 10
269.4195560644861
 20
136.1342496370239
  0
LWPOLYLINE
  5
623
330
1F
100
AcDbEntity
  8
Sichtbare_Kanten_TC_020513_DIN_
  6
Continuous
 62
     7
100
AcDbPolyline
 90
        2
 70
     0
 43
0.5
 10
269.419556064482
 20
135.9558373871169
 10
269.4195560644861
 20
136.1342496370239
  0
LWPOLYLINE
  5
624
330
1F
100
AcDbEntity
  8
Sichtbare_Kanten_TC_020513_DIN_
  6
Continuous
 62
     7
100
AcDbPolyline
 90
        2
 70
     0
 43
0.5
 10
269.419556064482
 20
135.9558373871169
 10
269.4195560644799
 20
127.9558373871169
  0
LWPOLYLINE
  5
625
330
1F
100
AcDbEntity
  8
Sichtbare_Kanten_TC_020513_DIN_
  6
Continuous
 62
     7
100
AcDbPolyline
 90
        2
 70
     0
 43
0.5
 10
269.4195560644799
 20
125.5392000845259
 10
269.4195560644799
 20
127.9558373871169
  0
LWPOLYLINE
  5
626
330
1F
100
AcDbEntity
  8
Sichtbare_Kanten_TC_020513_DIN_
  6
Continuous
 62
     7
100
AcDbPolyline
 90
        2
 70
     0
 43
0.5
 10
264.102918761889
 20
124.1392000845259
 10
268.0195560644801
 20
124.1392000845259
  0
LWPOLYLINE
  5
627
330
1F
100
AcDbEntity
  8
Sichtbare_Kanten_TC_020513_DIN_
  6
Continuous
 62
     7
100
AcDbPolyline
 90
        2
 70
     0
 43
0.5
 10
263.311373936957
 20
124.1392000845259
 10
264.102918761889
 20
124.1392000845259
  0
LWPOLYLINE
  5
628
330
1F
100
AcDbEntity
  8
Sichtbare_Kanten_TC_020513_DIN_
  6
Continuous
 62
     7
100
AcDbPolyline
 90
        2
 70
     0
 43
0.5
 10
263.311373936957
 20
124.1392000845259
 10
256.979015337501
 20
124.1392000845259
  0
LWPOLYLINE
  5
629
330
1F
100
AcDbEntity
  8
Sichtbare_Kanten_TC_020513_DIN_
  6
Continuous
 62
     7
100
AcDbPolyline
 90
        2
 70
     0
 43
0.5
 10
256.979015337501
 20
124.1392000845259
 10
231.660096791457
 20
124.1392000845259
  0
LWPOLYLINE
  5
62A
330
1F
100
AcDbEntity
  8
Sichtbare_Kanten_TC_020513_DIN_
  6
Continuous
 62
     7
100
AcDbPolyline
 90
        2
 70
     0
 43
0.5
 10
258.102918761891
 20
122.6392000845259
 10
258.102918761891
 20
121.8015451695179
  0
LWPOLYLINE
  5
62B
330
1F
100
AcDbEntity
  8
Sichtbare_Kanten_TC_020513_DIN_
  6
Continuous
 62
     7
100
AcDbPolyline
 90
        2
 70
     0
 43
0.5
 10
254.102918761891
 20
122.3015451695179
 10
254.102918761891
 20
122.6392000845259
  0
LWPOLYLINE
  5
62C
330
1F
100
AcDbEntity
  8
Sichtbare_Kanten_TC_020513_DIN_
  6
Continuous
 62
     7
100
AcDbPolyline
 90
        2
 70
     0
 43
0.5
 10
258.102918761891
 20
121.8015451695179
 10
254.602918761891
 20
121.8015451695179
  0
LWPOLYLINE
  5
62D
330
1F
100
AcDbEntity
  8
Sichtbare_Kanten_TC_020513_DIN_
  6
Continuous
 62
     7
100
AcDbPolyline
 90
        2
 70
     0
 43
0.5
 10
256.979015337501
 20
122.7392000845259
 10
231.660096791457
 20
122.7392000845259
  0
LWPOLYLINE
  5
62E
330
1F
100
AcDbEntity
  8
Sichtbare_Kanten_TC_020513_DIN_
  6
Continuous
 62
     7
100
AcDbPolyline
 90
        2
 70
     0
 43
0.5
 10
263.311373936957
 20
122.7392000845259
 10
256.979015337501
 20
122.7392000845259
  0
LWPOLYLINE
  5
62F
330
1F
100
AcDbEntity
  8
Sichtbare_Kanten_TC_020513_DIN_
  6
Continuous
 62
     7
100
AcDbPolyline
 90
        2
 70
     0
 43
0.5
 10
263.311373936957
 20
122.7392000845259
 10
264.102918761889
 20
122.7392000845259
  0
LWPOLYLINE
  5
630
330
1F
100
AcDbEntity
  8
Sichtbare_Kanten_TC_020513_DIN_
  6
Continuous
 62
     7
100
AcDbPolyline
 90
        2
 70
     0
 43
0.5
 10
264.102918761889
 20
122.7392000845259
 10
268.0195560644801
 20
122.7392000845259
  0
LWPOLYLINE
  5
631
330
1F
100
AcDbEntity
  8
Sichtbare_Kanten_TC_020513_DIN_
  6
Continuous
 62
     7
100
AcDbPolyline
 90
        2
 70
     0
 43
0.5
 10
230.536193367073
 20
122.6392000845259
 10
230.536193367073
 20
121.8015451695179
  0
LWPOLYLINE
  5
632
330
1F
100
AcDbEntity
  8
Sichtbare_Kanten_TC_020513_DIN_
  6
Continuous
 62
     7
100
AcDbPolyline
 90
        2
 70
     0
 43
0.5
 10
234.536193367073
 20
122.3015451695179
 10
234.536193367073
 20
122.6392000845259
  0
LWPOLYLINE
  5
633
330
1F
100
AcDbEntity
  8
Sichtbare_Kanten_TC_020513_DIN_
  6
Continuous
 62
     7
100
AcDbPolyline
 90
        2
 70
     0
 43
0.5
 10
230.536193367073
 20
121.8015451695179
 10
234.036193367073
 20
121.8015451695179
  0
LWPOLYLINE
  5
634
330
1F
100
AcDbEntity
  8
Sichtbare_Kanten_TC_020513_DIN_
  6
Continuous
 62
     7
100
AcDbPolyline
 90
        2
 70
     0
 43
0.5
 10
225.327738192003
 20
122.7392000845259
 10
231.660096791457
 20
122.7392000845259
  0
LWPOLYLINE
  5
635
330
1F
100
AcDbEntity
  8
Sichtbare_Kanten_TC_020513_DIN_
  6
Continuous
 62
     7
100
AcDbPolyline
 90
        2
 70
     0
 43
0.5
 10
225.327738192003
 20
124.1392000845259
 10
231.660096791457
 20
124.1392000845259
  0
LWPOLYLINE
  5
636
330
1F
100
AcDbEntity
  8
Sichtbare_Kanten_TC_020513_DIN_
  6
Continuous
 62
     7
100
AcDbPolyline
 90
        2
 70
     0
 43
0.5
 10
225.327738192003
 20
122.7392000845259
 10
224.536193367071
 20
122.7392000845259
  0
LWPOLYLINE
  5
637
330
1F
100
AcDbEntity
  8
Sichtbare_Kanten_TC_020513_DIN_
  6
Continuous
 62
     7
100
AcDbPolyline
 90
        2
 70
     0
 43
0.5
 10
225.327738192003
 20
124.1392000845259
 10
224.536193367071
 20
124.1392000845259
  0
LWPOLYLINE
  5
638
330
1F
100
AcDbEntity
  8
Sichtbare_Kanten_TC_020513_DIN_
  6
Continuous
 62
     7
100
AcDbPolyline
 90
        2
 70
     0
 43
0.5
 10
224.536193367071
 20
124.1392000845259
 10
220.61955606448
 20
124.1392000845259
  0
LWPOLYLINE
  5
639
330
1F
100
AcDbEntity
  8
Sichtbare_Kanten_TC_020513_DIN_
  6
Continuous
 62
     7
100
AcDbPolyline
 90
        2
 70
     0
 43
0.5
 10
224.536193367071
 20
122.7392000845259
 10
220.61955606448
 20
122.7392000845259
  0
LWPOLYLINE
  5
63A
330
1F
100
AcDbEntity
  8
Sichtbare_Kanten_TC_020513_DIN_
  6
Continuous
 62
     7
100
AcDbPolyline
 90
        2
 70
     0
 43
0.5
 10
217.819556064482
 20
135.9558373871169
 10
219.219556064486
 20
135.9558373871169
  0
LWPOLYLINE
  5
63B
330
1F
100
AcDbEntity
  8
Sichtbare_Kanten_TC_020513_DIN_
  6
Continuous
 62
     7
100
AcDbPolyline
 90
        2
 70
     0
 43
0.5
 10
217.81955606448
 20
125.5392000845259
 10
217.81955606449
 20
120.2218969625109
  0
LWPOLYLINE
  5
63C
330
1F
100
AcDbEntity
  8
Sichtbare_Kanten_TC_020513_DIN_
  6
Continuous
 62
     7
100
AcDbPolyline
 90
        2
 70
     0
 43
0.5
 10
217.819556064489
 20
141.9558373871169
 10
217.819556064488
 20
141.2478131006959
  0
LWPOLYLINE
  5
63D
330
1F
100
AcDbEntity
  8
Sichtbare_Kanten_TC_020513_DIN_
  6
Continuous
 62
     7
100
AcDbPolyline
 90
        2
 70
     0
 43
0.5
 10
217.819556064488
 20
141.2478131006959
 10
217.8195560644859
 20
136.1342496370239
  0
LWPOLYLINE
  5
63E
330
1F
100
AcDbEntity
  8
Sichtbare_Kanten_TC_020513_DIN_
  6
Continuous
 62
     7
100
AcDbPolyline
 90
        2
 70
     0
 43
0.5
 10
217.819556064482
 20
135.9558373871169
 10
217.8195560644859
 20
136.1342496370239
  0
LWPOLYLINE
  5
63F
330
1F
100
AcDbEntity
  8
Sichtbare_Kanten_TC_020513_DIN_
  6
Continuous
 62
     7
100
AcDbPolyline
 90
        2
 70
     0
 43
0.5
 10
217.819556064482
 20
135.9558373871169
 10
217.81955606448
 20
127.9558373871169
  0
LWPOLYLINE
  5
640
330
1F
100
AcDbEntity
  8
Sichtbare_Kanten_TC_020513_DIN_
  6
Continuous
 62
     7
100
AcDbPolyline
 90
        2
 70
     0
 43
0.5
 10
217.81955606448
 20
125.5392000845259
 10
217.81955606448
 20
127.9558373871169
  0
LWPOLYLINE
  5
641
330
1F
100
AcDbEntity
  8
Sichtbare_Kanten_TC_020513_DIN_
  6
Continuous
 62
     7
100
AcDbPolyline
 90
        2
 70
     0
 43
0.5
 10
219.21955606448
 20
125.5392000845259
 10
219.21955606448
 20
127.9558373871169
  0
LWPOLYLINE
  5
642
330
1F
100
AcDbEntity
  8
Sichtbare_Kanten_TC_020513_DIN_
  6
Continuous
 62
     7
100
AcDbPolyline
 90
        2
 70
     0
 43
0.5
 10
219.219556064486
 20
135.9558373871169
 10
219.21955606448
 20
127.9558373871169
  0
LWPOLYLINE
  5
643
330
1F
100
AcDbEntity
  8
Sichtbare_Kanten_TC_020513_DIN_
  6
Continuous
 62
     7
100
AcDbPolyline
 90
        2
 70
     0
 43
0.5
 10
219.219556064486
 20
135.9558373871169
 10
219.219556064486
 20
136.1342496370239
  0
LWPOLYLINE
  5
644
330
1F
100
AcDbEntity
  8
Sichtbare_Kanten_TC_020513_DIN_
  6
Continuous
 62
     7
100
AcDbPolyline
 90
        2
 70
     0
 43
0.5
 10
219.219556064488
 20
141.2478131006959
 10
219.219556064486
 20
136.1342496370239
  0
LWPOLYLINE
  5
645
330
1F
100
AcDbEntity
  8
Sichtbare_Kanten_TC_020513_DIN_
  6
Continuous
 62
     7
100
AcDbPolyline
 90
        2
 70
     0
 43
0.5
 10
219.219556064489
 20
141.9558373871169
 10
219.219556064488
 20
141.2478131006959
  0
LWPOLYLINE
  5
646
330
1F
100
AcDbEntity
  8
Sichtbare_Kanten_TC_020513_DIN_
  6
Continuous
 62
     7
100
AcDbPolyline
 90
        2
 70
     0
 43
0.5
 10
219.2195560644869
 20
123.1143289539289
 10
219.21955606449
 20
120.2218969625109
  0
LWPOLYLINE
  5
647
330
1F
100
AcDbEntity
  8
Sichtbare_Kanten_TC_020513_DIN_
  6
Continuous
 62
     7
100
AcDbPolyline
 90
        2
 70
     0
 43
0.5
 10
258.102918761891
 20
122.6392000845259
 10
258.102918761891
 20
122.7392000845259
  0
LWPOLYLINE
  5
648
330
1F
100
AcDbEntity
  8
Sichtbare_Kanten_TC_020513_DIN_
  6
Continuous
 62
     7
100
AcDbPolyline
 90
        2
 70
     0
 43
0.5
 10
254.102918761891
 20
122.7392000845259
 10
254.102918761891
 20
122.6392000845259
  0
LWPOLYLINE
  5
649
330
1F
100
AcDbEntity
  8
Sichtbare_Kanten_TC_020513_DIN_
  6
Continuous
 62
     7
100
AcDbPolyline
 90
        2
 70
     0
 43
0.5
 10
234.536193367073
 20
122.6392000845259
 10
234.536193367073
 20
122.7392000845259
  0
LWPOLYLINE
  5
64A
330
1F
100
AcDbEntity
  8
Sichtbare_Kanten_TC_020513_DIN_
  6
Continuous
 62
     7
100
AcDbPolyline
 90
        2
 70
     0
 43
0.5
 10
230.536193367073
 20
122.7392000845259
 10
230.536193367073
 20
122.6392000845259
  0
LWPOLYLINE
  5
64B
330
1F
100
AcDbEntity
  8
Sichtbare_Kanten_TC_020513_DIN_
  6
Continuous
 62
     7
100
AcDbPolyline
 90
        2
 70
     0
 43
0.5
 10
221.919556064489
 20
132.4558373871169
 10
221.969556064489
 20
132.4558373871169
  0
LWPOLYLINE
  5
64C
330
1F
100
AcDbEntity
  8
Sichtbare_Kanten_TC_020513_DIN_
  6
Continuous
 62
     7
100
AcDbPolyline
 90
        2
 70
     0
 43
0.5
 10
219.219556064489
 20
132.4558373871169
 10
220.5195560644889
 20
132.4558373871169
  0
LWPOLYLINE
  5
64D
330
1F
100
AcDbEntity
  8
Sichtbare_Kanten_TC_020513_DIN_
  6
Continuous
 62
     7
100
AcDbPolyline
 90
        2
 70
     0
 43
0.5
 10
221.919556064489
 20
137.4558373871169
 10
221.969556064489
 20
137.4558373871169
  0
LWPOLYLINE
  5
64E
330
1F
100
AcDbEntity
  8
Sichtbare_Kanten_TC_020513_DIN_
  6
Continuous
 62
     7
100
AcDbPolyline
 90
        2
 70
     0
 43
0.5
 10
219.219556064489
 20
137.4558373871169
 10
220.5195560644889
 20
137.4558373871169
  0
LWPOLYLINE
  5
64F
330
1F
100
AcDbEntity
  8
Sichtbare_Kanten_TC_020513_DIN_
  6
Continuous
 62
     7
100
AcDbPolyline
 90
        2
 70
     0
 43
0.5
 10
217.219556064489
 20
132.4558373871169
 10
217.819556064489
 20
132.4558373871169
  0
LWPOLYLINE
  5
650
330
1F
100
AcDbEntity
  8
Sichtbare_Kanten_TC_020513_DIN_
  6
Continuous
 62
     7
100
AcDbPolyline
 90
        2
 70
     0
 43
0.5
 10
217.219556064489
 20
137.4558373871169
 10
217.819556064489
 20
137.4558373871169
  0
LWPOLYLINE
  5
651
330
1F
100
AcDbEntity
  8
Sichtbare_Kanten_TC_020513_DIN_
  6
Continuous
 62
     7
100
AcDbPolyline
 90
        2
 70
     0
 43
0.5
 10
221.969556064489
 20
133.4558373871169
 10
222.069556064489
 20
133.4558373871169
  0
LWPOLYLINE
  5
652
330
1F
100
AcDbEntity
  8
Sichtbare_Kanten_TC_020513_DIN_
  6
Continuous
 62
     7
100
AcDbPolyline
 90
        2
 70
     0
 43
0.5
 10
221.969556064489
 20
136.4558373871169
 10
222.069556064489
 20
136.4558373871169
  0
LWPOLYLINE
  5
653
330
1F
100
AcDbEntity
  8
Sichtbare_Kanten_TC_020513_DIN_
  6
Continuous
 62
     7
100
AcDbPolyline
 90
        2
 70
     0
 43
0.5
 10
268.1195560644891
 20
132.4558373871169
 10
269.419556064489
 20
132.4558373871169
  0
LWPOLYLINE
  5
654
330
1F
100
AcDbEntity
  8
Sichtbare_Kanten_TC_020513_DIN_
  6
Continuous
 62
     7
100
AcDbPolyline
 90
        2
 70
     0
 43
0.5
 10
266.669556064489
 20
132.4558373871169
 10
266.719556064489
 20
132.4558373871169
  0
LWPOLYLINE
  5
655
330
1F
100
AcDbEntity
  8
Sichtbare_Kanten_TC_020513_DIN_
  6
Continuous
 62
     7
100
AcDbPolyline
 90
        2
 70
     0
 43
0.5
 10
268.1195560644891
 20
137.4558373871169
 10
269.419556064489
 20
137.4558373871169
  0
LWPOLYLINE
  5
656
330
1F
100
AcDbEntity
  8
Sichtbare_Kanten_TC_020513_DIN_
  6
Continuous
 62
     7
100
AcDbPolyline
 90
        2
 70
     0
 43
0.5
 10
266.669556064489
 20
137.4558373871169
 10
266.719556064489
 20
137.4558373871169
  0
LWPOLYLINE
  5
657
330
1F
100
AcDbEntity
  8
Sichtbare_Kanten_TC_020513_DIN_
  6
Continuous
 62
     7
100
AcDbPolyline
 90
        2
 70
     0
 43
0.5
 10
270.819556064489
 20
132.4558373871169
 10
271.419556064489
 20
132.4558373871169
  0
LWPOLYLINE
  5
658
330
1F
100
AcDbEntity
  8
Sichtbare_Kanten_TC_020513_DIN_
  6
Continuous
 62
     7
100
AcDbPolyline
 90
        2
 70
     0
 43
0.5
 10
270.819556064489
 20
137.4558373871169
 10
271.419556064489
 20
137.4558373871169
  0
LWPOLYLINE
  5
659
330
1F
100
AcDbEntity
  8
Sichtbare_Kanten_TC_020513_DIN_
  6
Continuous
 62
     7
100
AcDbPolyline
 90
        2
 70
     0
 43
0.5
 10
266.569556064489
 20
133.4558373871169
 10
266.669556064489
 20
133.4558373871169
  0
LWPOLYLINE
  5
65A
330
1F
100
AcDbEntity
  8
Sichtbare_Kanten_TC_020513_DIN_
  6
Continuous
 62
     7
100
AcDbPolyline
 90
        2
 70
     0
 43
0.5
 10
266.569556064489
 20
136.4558373871169
 10
266.669556064489
 20
136.4558373871169
  0
LWPOLYLINE
  5
65B
330
1F
100
AcDbEntity
  8
Sichtbare_Kanten_TC_020513_DIN_
  6
Continuous
 62
     7
100
AcDbPolyline
 90
        2
 70
     0
 43
0.5
 10
215.819556064489
 20
130.9558373871169
 10
215.819556064489
 20
138.9558373871169
  0
LWPOLYLINE
  5
65C
330
1F
100
AcDbEntity
  8
Sichtbare_Kanten_TC_020513_DIN_
  6
Continuous
 62
     7
100
AcDbPolyline
 90
        2
 70
     0
 43
0.5
 10
217.219556064489
 20
130.9558373871169
 10
217.219556064489
 20
138.9558373871169
  0
LWPOLYLINE
  5
65D
330
1F
100
AcDbEntity
  8
Sichtbare_Kanten_TC_020513_DIN_
  6
Continuous
 62
     7
100
AcDbPolyline
 90
        2
 70
     0
 43
0.5
 10
221.969556064489
 20
132.4558373871169
 10
221.969556064489
 20
137.4558373871169
  0
LWPOLYLINE
  5
65E
330
1F
100
AcDbEntity
  8
Sichtbare_Kanten_TC_020513_DIN_
  6
Continuous
 62
     7
100
AcDbPolyline
 90
        2
 70
     0
 43
0.5
 10
272.819556064489
 20
130.9558373871169
 10
272.819556064489
 20
138.9558373871169
  0
LWPOLYLINE
  5
65F
330
1F
100
AcDbEntity
  8
Sichtbare_Kanten_TC_020513_DIN_
  6
Continuous
 62
     7
100
AcDbPolyline
 90
        2
 70
     0
 43
0.5
 10
271.419556064489
 20
130.9558373871169
 10
271.419556064489
 20
138.9558373871169
  0
LWPOLYLINE
  5
660
330
1F
100
AcDbEntity
  8
Sichtbare_Kanten_TC_020513_DIN_
  6
Continuous
 62
     7
100
AcDbPolyline
 90
        2
 70
     0
 43
0.5
 10
266.669556064489
 20
132.4558373871169
 10
266.669556064489
 20
137.4558373871169
  0
LWPOLYLINE
  5
661
330
1F
100
AcDbEntity
  8
Sichtbare_Kanten_TC_020513_DIN_
  6
Continuous
 62
     7
100
AcDbPolyline
 90
        2
 70
     0
 43
0.5
 10
266.3695560644841
 20
141.9558373871169
 10
260.5695560644821
 20
141.9558373871169
  0
LWPOLYLINE
  5
662
330
1F
100
AcDbEntity
  8
Sichtbare_Kanten_TC_020513_DIN_
  6
Continuous
 62
     7
100
AcDbPolyline
 90
        2
 70
     0
 43
0.5
 10
266.3695560644841
 20
141.9558373871169
 10
266.3695560644841
 20
137.9558373871169
  0
LWPOLYLINE
  5
663
330
1F
100
AcDbEntity
  8
Sichtbare_Kanten_TC_020513_DIN_
  6
Continuous
 62
     7
100
AcDbPolyline
 90
        2
 70
     0
 43
0.5
 10
260.564361285906
 20
141.9558373871169
 10
260.5695560644821
 20
141.9558373871169
  0
LWPOLYLINE
  5
664
330
1F
100
AcDbEntity
  8
Sichtbare_Kanten_TC_020513_DIN_
  6
Continuous
 62
     7
100
AcDbPolyline
 90
        2
 70
     0
 43
0.5
 10
228.069556064483
 20
141.9558373871169
 10
228.074750843059
 20
141.9558373871169
  0
LWPOLYLINE
  5
665
330
1F
100
AcDbEntity
  8
Sichtbare_Kanten_TC_020513_DIN_
  6
Continuous
 62
     7
100
AcDbPolyline
 90
        2
 70
     0
 43
0.5
 10
228.069556064483
 20
141.9558373871169
 10
222.2695560644839
 20
141.9558373871169
  0
LWPOLYLINE
  5
666
330
1F
100
AcDbEntity
  8
Sichtbare_Kanten_TC_020513_DIN_
  6
Continuous
 62
     7
100
AcDbPolyline
 90
        2
 70
     0
 43
0.5
 10
222.2695560644839
 20
141.9558373871169
 10
222.2695560644839
 20
137.9558373871169
  0
LWPOLYLINE
  5
667
330
1F
100
AcDbEntity
  8
Sichtbare_Kanten_TC_020513_DIN_
  6
Continuous
 62
     7
100
AcDbPolyline
 90
        2
 70
     0
 43
0.5
 10
264.2352756391371
 20
89.78998945926118
 10
264.2352756391371
 20
86.12168531497169
  0
LWPOLYLINE
  5
668
330
1F
100
AcDbEntity
  8
Sichtbare_Kanten_TC_020513_DIN_
  6
Continuous
 62
     7
100
AcDbPolyline
 90
        2
 70
     0
 43
0.5
 10
224.403836489829
 20
86.12168531497178
 10
224.403836489829
 20
89.78998945926118
  0
LWPOLYLINE
  5
669
330
1F
100
AcDbEntity
  8
Sichtbare_Kanten_TC_020513_DIN_
  6
Continuous
 62
     7
100
AcDbPolyline
 90
        2
 70
     0
 43
0.5
 10
229.109979577479
 20
137.9558373871169
 10
228.069556064483
 20
137.9558373871169
  0
LWPOLYLINE
  5
66A
330
1F
100
AcDbEntity
  8
Sichtbare_Kanten_TC_020513_DIN_
  6
Continuous
 62
     7
100
AcDbPolyline
 90
        2
 70
     0
 43
0.5
 10
260.5695560644821
 20
137.9558373871169
 10
259.529132551486
 20
137.9558373871169
  0
LWPOLYLINE
  5
66B
330
1F
100
AcDbEntity
  8
Sichtbare_Kanten_TC_020513_DIN_
  6
Continuous
 62
     7
100
AcDbPolyline
 90
        2
 70
     0
 43
0.5
 10
222.069556064484
 20
124.1392000845259
 10
222.069556064484
 20
137.9558373871169
  0
LWPOLYLINE
  5
66C
330
1F
100
AcDbEntity
  8
Sichtbare_Kanten_TC_020513_DIN_
  6
Continuous
 62
     7
100
AcDbPolyline
 90
        2
 70
     0
 43
0.5
 10
222.069556064484
 20
65.95583738711647
 10
222.069556064484
 20
122.7392000845259
  0
LWPOLYLINE
  5
66D
330
1F
100
AcDbEntity
  8
Sichtbare_Kanten_TC_020513_DIN_
  6
Continuous
 62
     7
100
AcDbPolyline
 90
        2
 70
     0
 43
0.5
 10
222.069556064484
 20
137.9558373871169
 10
228.069556064483
 20
137.9558373871169
  0
LWPOLYLINE
  5
66E
330
1F
100
AcDbEntity
  8
Sichtbare_Kanten_TC_020513_DIN_
  6
Continuous
 62
     7
100
AcDbPolyline
 90
        2
 70
     0
 43
0.5
 10
260.5695560644821
 20
137.9558373871169
 10
266.569556064484
 20
137.9558373871169
  0
LWPOLYLINE
  5
66F
330
1F
100
AcDbEntity
  8
Sichtbare_Kanten_TC_020513_DIN_
  6
Continuous
 62
     7
100
AcDbPolyline
 90
        2
 70
     0
 43
0.5
 10
266.569556064484
 20
124.1392000845259
 10
266.569556064484
 20
137.9558373871169
  0
LWPOLYLINE
  5
670
330
1F
100
AcDbEntity
  8
Sichtbare_Kanten_TC_020513_DIN_
  6
Continuous
 62
     7
100
AcDbPolyline
 90
        2
 70
     0
 43
0.5
 10
266.569556064484
 20
65.95583738711647
 10
266.569556064484
 20
122.7392000845259
  0
LWPOLYLINE
  5
671
330
1F
100
AcDbEntity
  8
Sichtbare_Kanten_TC_020513_DIN_
  6
Continuous
 62
     7
100
AcDbPolyline
 90
        2
 70
     0
 43
0.5
 10
272.819556064479
 20
61.95583738711648
 10
215.819556064479
 20
61.95583738711648
  0
LWPOLYLINE
  5
672
330
1F
100
AcDbEntity
  8
Sichtbare_Kanten_TC_020513_DIN_
  6
Continuous
 62
     7
100
AcDbPolyline
 90
        2
 70
     0
 43
0.5
 10
272.819556064479
 20
61.95583738711648
 10
272.819556064479
 20
65.95583738711647
  0
LWPOLYLINE
  5
673
330
1F
100
AcDbEntity
  8
Sichtbare_Kanten_TC_020513_DIN_
  6
Continuous
 62
     7
100
AcDbPolyline
 90
        2
 70
     0
 43
0.5
 10
215.819556064479
 20
61.95583738711648
 10
215.819556064479
 20
65.95583738711647
  0
LWPOLYLINE
  5
674
330
1F
100
AcDbEntity
  8
Sichtbare_Kanten_TC_020513_DIN_
  6
Continuous
 62
     7
100
AcDbPolyline
 90
        2
 70
     0
 43
0.5
 10
272.819556064479
 20
65.95583738711647
 10
215.819556064479
 20
65.95583738711647
  0
LWPOLYLINE
  5
675
330
1F
100
AcDbEntity
  8
Sichtbare_Kanten_TC_020513_DIN_
  6
Continuous
 62
     7
100
AcDbPolyline
 90
        2
 70
     0
 43
0.5
 10
37.31011662342399
 20
142.3168227221119
 10
34.51011662342398
 20
142.3168227221119
  0
LWPOLYLINE
  5
676
330
1F
100
AcDbEntity
  8
Sichtbare_Kanten_TC_020513_DIN_
  6
Continuous
 62
     7
100
AcDbPolyline
 90
        2
 70
     0
 43
0.5
 10
34.51011662342398
 20
142.3168227221119
 10
34.51011662342398
 20
151.6410328418819
  0
LWPOLYLINE
  5
677
330
1F
100
AcDbEntity
  8
Sichtbare_Kanten_TC_020513_DIN_
  6
Continuous
 62
     7
100
AcDbPolyline
 90
        2
 70
     0
 43
0.5
 10
34.8699676890692
 20
152.3168227221119
 10
35.81761797583852
 20
152.3168227221119
  0
LWPOLYLINE
  5
678
330
1F
100
AcDbEntity
  8
Sichtbare_Kanten_TC_020513_DIN_
  6
Continuous
 62
     7
100
AcDbPolyline
 90
        2
 70
     0
 43
0.5
 10
33.11011662342401
 20
152.1334600247019
 10
33.11011662342401
 20
152.7494611549829
  0
LWPOLYLINE
  5
679
330
1F
100
AcDbEntity
  8
Sichtbare_Kanten_TC_020513_DIN_
  6
Continuous
 62
     7
100
AcDbPolyline
 90
        2
 70
     0
 43
0.5
 10
33.11011662342401
 20
152.7494611549829
 10
33.11011662342401
 20
153.5334600247019
  0
LWPOLYLINE
  5
67A
330
1F
100
AcDbEntity
  8
Sichtbare_Kanten_TC_020513_DIN_
  6
Continuous
 62
     7
100
AcDbPolyline
 90
        2
 70
     0
 43
0.5
 10
67.17675392601478
 20
124.7181824721089
 10
67.17675392601478
 20
124.8181824721089
  0
LWPOLYLINE
  5
67B
330
1F
100
AcDbEntity
  8
Sichtbare_Kanten_TC_020513_DIN_
  6
Continuous
 62
     7
100
AcDbPolyline
 90
        2
 70
     0
 43
0.5
 10
64.2767539260148
 20
124.8181824721089
 10
64.2767539260148
 20
124.7181824721089
  0
LWPOLYLINE
  5
67C
330
1F
100
AcDbEntity
  8
Sichtbare_Kanten_TC_020513_DIN_
  6
Continuous
 62
     7
100
AcDbPolyline
 90
        2
 70
     0
 43
0.5
 10
34.51011662342398
 20
140.7566456936139
 10
35.12612047636031
 20
140.7566456936139
  0
LWPOLYLINE
  5
67D
330
1F
100
AcDbEntity
  8
Sichtbare_Kanten_TC_020513_DIN_
  6
Continuous
 62
     7
100
AcDbPolyline
 90
        2
 70
     0
 43
0.5
 10
35.12612047636031
 20
140.7566456936139
 10
35.91011662342402
 20
140.7566456936139
  0
LWPOLYLINE
  5
67E
330
1F
100
AcDbEntity
  8
Sichtbare_Kanten_TC_020513_DIN_
  6
Continuous
 62
     7
100
AcDbPolyline
 90
        2
 70
     0
 43
0.5
 10
35.64777842712658
 20
139.5733145607399
 10
34.93723661403681
 20
139.9046456496229
  0
LWPOLYLINE
  5
67F
330
1F
100
AcDbEntity
  8
Sichtbare_Kanten_TC_020513_DIN_
  6
Continuous
 62
     7
100
AcDbPolyline
 90
        2
 70
     0
 43
0.5
 10
34.93723661403681
 20
139.9046456496229
 10
34.37894752527529
 20
140.1649801271769
  0
LWPOLYLINE
  5
680
330
1F
100
AcDbEntity
  8
Sichtbare_Kanten_TC_020513_DIN_
  6
Continuous
 62
     7
100
AcDbPolyline
 90
        2
 70
     0
 43
0.5
 10
165.843391228606
 20
151.6410328418819
 10
165.843391228606
 20
142.3168227221119
  0
LWPOLYLINE
  5
681
330
1F
100
AcDbEntity
  8
Sichtbare_Kanten_TC_020513_DIN_
  6
Continuous
 62
     7
100
AcDbPolyline
 90
        2
 70
     0
 43
0.5
 10
165.843391228606
 20
142.3168227221119
 10
163.043391228605
 20
142.3168227221119
  0
LWPOLYLINE
  5
682
330
1F
100
AcDbEntity
  8
Sichtbare_Kanten_TC_020513_DIN_
  6
Continuous
 62
     7
100
AcDbPolyline
 90
        2
 70
     0
 43
0.5
 10
164.535889876191
 20
152.3168227221119
 10
165.48354016296
 20
152.3168227221119
  0
LWPOLYLINE
  5
683
330
1F
100
AcDbEntity
  8
Sichtbare_Kanten_TC_020513_DIN_
  6
Continuous
 62
     7
100
AcDbPolyline
 90
        2
 70
     0
 43
0.5
 10
167.243391228606
 20
153.5334600247019
 10
167.243391228606
 20
152.7494611549849
  0
LWPOLYLINE
  5
684
330
1F
100
AcDbEntity
  8
Sichtbare_Kanten_TC_020513_DIN_
  6
Continuous
 62
     7
100
AcDbPolyline
 90
        2
 70
     0
 43
0.5
 10
167.243391228606
 20
152.7494611549849
 10
167.243391228606
 20
152.1334600247019
  0
LWPOLYLINE
  5
685
330
1F
100
AcDbEntity
  8
Sichtbare_Kanten_TC_020513_DIN_
  6
Continuous
 62
     7
100
AcDbPolyline
 90
        2
 70
     0
 43
0.5
 10
168.543155987402
 20
134.6566089569279
 10
165.974560326754
 20
140.1649801271769
  0
LWPOLYLINE
  5
686
330
1F
100
AcDbEntity
  8
Sichtbare_Kanten_TC_020513_DIN_
  6
Continuous
 62
     7
100
AcDbPolyline
 90
        2
 70
     0
 43
0.5
 10
164.705729424903
 20
139.5733145607399
 10
167.27432508555
 20
134.0649433904909
  0
LWPOLYLINE
  5
687
330
1F
100
AcDbEntity
  8
Sichtbare_Kanten_TC_020513_DIN_
  6
Continuous
 62
     7
100
AcDbPolyline
 90
        2
 70
     0
 43
0.5
 10
168.543155987402
 20
134.6566089569279
 10
169.16962920099
 20
133.3131328148739
  0
LWPOLYLINE
  5
688
330
1F
100
AcDbEntity
  8
Sichtbare_Kanten_TC_020513_DIN_
  6
Continuous
 62
     7
100
AcDbPolyline
 90
        2
 70
     0
 43
0.5
 10
169.16962920099
 20
133.3131328148739
 10
167.900798299139
 20
132.7214672484369
  0
LWPOLYLINE
  5
689
330
1F
100
AcDbEntity
  8
Sichtbare_Kanten_TC_020513_DIN_
  6
Continuous
 62
     7
100
AcDbPolyline
 90
        2
 70
     0
 43
0.5
 10
167.900798299139
 20
132.7214672484369
 10
167.27432508555
 20
134.0649433904909
  0
LWPOLYLINE
  5
68A
330
1F
100
AcDbEntity
  8
Sichtbare_Kanten_TC_020513_DIN_
  6
Continuous
 62
     7
100
AcDbPolyline
 90
        2
 70
     0
 43
0.5
 10
133.176753926015
 20
124.7181824721089
 10
133.176753926015
 20
123.3181824721089
  0
LWPOLYLINE
  5
68B
330
1F
100
AcDbEntity
  8
Sichtbare_Kanten_TC_020513_DIN_
  6
Continuous
 62
     7
100
AcDbPolyline
 90
        2
 70
     0
 43
0.5
 10
133.176753926015
 20
124.7181824721089
 10
133.676753926015
 20
124.7181824721089
  0
LWPOLYLINE
  5
68C
330
1F
100
AcDbEntity
  8
Sichtbare_Kanten_TC_020513_DIN_
  6
Continuous
 62
     7
100
AcDbPolyline
 90
        2
 70
     0
 43
0.5
 10
133.676753926015
 20
123.3181824721089
 10
133.176753926015
 20
123.3181824721089
  0
LWPOLYLINE
  5
68D
330
1F
100
AcDbEntity
  8
Sichtbare_Kanten_TC_020513_DIN_
  6
Continuous
 62
     7
100
AcDbPolyline
 90
        2
 70
     0
 43
0.5
 10
135.576753926015
 20
124.7181824721089
 10
133.676753926015
 20
124.7181824721089
  0
LWPOLYLINE
  5
68E
330
1F
100
AcDbEntity
  8
Sichtbare_Kanten_TC_020513_DIN_
  6
Continuous
 62
     7
100
AcDbPolyline
 90
        2
 70
     0
 43
0.5
 10
133.676753926015
 20
123.3181824721089
 10
135.576753926015
 20
123.3181824721089
  0
LWPOLYLINE
  5
68F
330
1F
100
AcDbEntity
  8
Sichtbare_Kanten_TC_020513_DIN_
  6
Continuous
 62
     7
100
AcDbPolyline
 90
        2
 70
     0
 43
0.5
 10
135.576753926015
 20
124.7181824721089
 10
136.076753926015
 20
124.7181824721089
  0
LWPOLYLINE
  5
690
330
1F
100
AcDbEntity
  8
Sichtbare_Kanten_TC_020513_DIN_
  6
Continuous
 62
     7
100
AcDbPolyline
 90
        2
 70
     0
 43
0.5
 10
136.076753926015
 20
124.7181824721089
 10
136.076753926015
 20
123.3181824721089
  0
LWPOLYLINE
  5
691
330
1F
100
AcDbEntity
  8
Sichtbare_Kanten_TC_020513_DIN_
  6
Continuous
 62
     7
100
AcDbPolyline
 90
        2
 70
     0
 43
0.5
 10
136.076753926015
 20
123.3181824721089
 10
135.576753926015
 20
123.3181824721089
  0
LWPOLYLINE
  5
692
330
1F
100
AcDbEntity
  8
Sichtbare_Kanten_TC_020513_DIN_
  6
Continuous
 62
     7
100
AcDbPolyline
 90
        2
 70
     0
 43
0.5
 10
172.177666621401
 20
153.5334600247019
 10
167.243391228606
 20
153.5334600247019
  0
LWPOLYLINE
  5
693
330
1F
100
AcDbEntity
  8
Sichtbare_Kanten_TC_020513_DIN_
  6
Continuous
 62
     7
100
AcDbPolyline
 90
        2
 70
     0
 43
0.5
 10
167.243391228606
 20
152.1334600247019
 10
172.177666621401
 20
152.1334600247019
  0
LWPOLYLINE
  5
694
330
1F
100
AcDbEntity
  8
Sichtbare_Kanten_TC_020513_DIN_
  6
Continuous
 62
     7
100
AcDbPolyline
 90
        2
 70
     0
 43
0.5
 10
173.660028531196
 20
152.1334600247019
 10
173.660028531196
 20
153.5334600247019
  0
LWPOLYLINE
  5
695
330
1F
100
AcDbEntity
  8
Sichtbare_Kanten_TC_020513_DIN_
  6
Continuous
 62
     7
100
AcDbPolyline
 90
        2
 70
     0
 43
0.5
 10
173.660028531196
 20
152.1334600247019
 10
172.177666621401
 20
152.1334600247019
  0
LWPOLYLINE
  5
696
330
1F
100
AcDbEntity
  8
Sichtbare_Kanten_TC_020513_DIN_
  6
Continuous
 62
     7
100
AcDbPolyline
 90
        2
 70
     0
 43
0.5
 10
172.177666621401
 20
153.5334600247019
 10
173.660028531196
 20
153.5334600247019
  0
LWPOLYLINE
  5
697
330
1F
100
AcDbEntity
  8
Sichtbare_Kanten_TC_020513_DIN_
  6
Continuous
 62
     7
100
AcDbPolyline
 90
        2
 70
     0
 43
0.5
 10
165.843391228606
 20
142.1315274833869
 10
165.843391228606
 20
142.3168227221119
  0
LWPOLYLINE
  5
698
330
1F
100
AcDbEntity
  8
Sichtbare_Kanten_TC_020513_DIN_
  6
Continuous
 62
     7
100
AcDbPolyline
 90
        2
 70
     0
 43
0.5
 10
164.443391228606
 20
142.3168227221119
 10
164.443391228606
 20
142.1315274833869
  0
LWPOLYLINE
  5
699
330
1F
100
AcDbEntity
  8
Sichtbare_Kanten_TC_020513_DIN_
  6
Continuous
 62
     7
100
AcDbPolyline
 90
        2
 70
     0
 43
0.5
 10
164.443391228606
 20
142.1315274833869
 10
164.443391228606
 20
140.7566456936139
  0
LWPOLYLINE
  5
69A
330
1F
100
AcDbEntity
  8
Sichtbare_Kanten_TC_020513_DIN_
  6
Continuous
 62
     7
100
AcDbPolyline
 90
        2
 70
     0
 43
0.5
 10
165.843391228606
 20
140.7566456936139
 10
165.843391228606
 20
142.1315274833869
  0
LWPOLYLINE
  5
69B
330
1F
100
AcDbEntity
  8
Sichtbare_Kanten_TC_020513_DIN_
  6
Continuous
 62
     7
100
AcDbPolyline
 90
        2
 70
     0
 43
0.5
 10
133.176753926015
 20
124.8181824721089
 10
133.176753926015
 20
124.8572252059819
  0
LWPOLYLINE
  5
69C
330
1F
100
AcDbEntity
  8
Sichtbare_Kanten_TC_020513_DIN_
  6
Continuous
 62
     7
100
AcDbPolyline
 90
        2
 70
     0
 43
0.5
 10
140.676753926015
 20
141.2803927074529
 10
140.676753926015
 20
142.9558373871169
  0
LWPOLYLINE
  5
69D
330
1F
100
AcDbEntity
  8
Sichtbare_Kanten_TC_020513_DIN_
  6
Continuous
 62
     7
100
AcDbPolyline
 90
        2
 70
     0
 43
0.5
 10
140.676753926015
 20
142.9558373871169
 10
142.905631862351
 20
146.1709719178149
  0
LWPOLYLINE
  5
69E
330
1F
100
AcDbEntity
  8
Sichtbare_Kanten_TC_020513_DIN_
  6
Continuous
 62
     7
100
AcDbPolyline
 90
        2
 70
     0
 43
0.5
 10
142.963755881684
 20
146.6290476541309
 10
141.898110873191
 20
149.5147297902439
  0
LWPOLYLINE
  5
69F
330
1F
100
AcDbEntity
  8
Sichtbare_Kanten_TC_020513_DIN_
  6
Continuous
 62
     7
100
AcDbPolyline
 90
        2
 70
     0
 43
0.5
 10
133.416472245187
 20
159.9558373871169
 10
141.416472245187
 20
159.9558373871169
  0
LWPOLYLINE
  5
6A0
330
1F
100
AcDbEntity
  8
Sichtbare_Kanten_TC_020513_DIN_
  6
Continuous
 62
     7
100
AcDbPolyline
 90
        2
 70
     0
 43
0.5
 10
159.702199452444
 20
154.7992986559069
 10
163.043391228605
 20
152.7520789713079
  0
LWPOLYLINE
  5
6A1
330
1F
100
AcDbEntity
  8
Sichtbare_Kanten_TC_020513_DIN_
  6
Continuous
 62
     7
100
AcDbPolyline
 90
        2
 70
     0
 43
0.5
 10
163.043391228605
 20
142.3168227221119
 10
161.676753926015
 20
142.3168227221119
  0
LWPOLYLINE
  5
6A2
330
1F
100
AcDbEntity
  8
Sichtbare_Kanten_TC_020513_DIN_
  6
Continuous
 62
     7
100
AcDbPolyline
 90
        2
 70
     0
 43
0.5
 10
160.892454399829
 20
142.6964403777259
 10
158.068903689108
 20
146.2660285593089
  0
LWPOLYLINE
  5
6A3
330
1F
100
AcDbEntity
  8
Sichtbare_Kanten_TC_020513_DIN_
  6
Continuous
 62
     7
100
AcDbPolyline
 90
        2
 70
     0
 43
0.5
 10
157.366562753822
 20
146.3479871502089
 10
147.252805864588
 20
138.3479871502089
  0
LWPOLYLINE
  5
6A4
330
1F
100
AcDbEntity
  8
Sichtbare_Kanten_TC_020513_DIN_
  6
Continuous
 62
     7
100
AcDbPolyline
 90
        2
 70
     0
 43
0.5
 10
147.064899687734
 20
137.9994152584899
 10
146.937799332409
 20
136.5466515494199
  0
LWPOLYLINE
  5
6A5
330
1F
100
AcDbEntity
  8
Sichtbare_Kanten_TC_020513_DIN_
  6
Continuous
 62
     7
100
AcDbPolyline
 90
        2
 70
     0
 43
0.5
 10
136.112894587649
 20
124.9558373871169
 10
136.076753926015
 20
124.9558373871169
  0
LWPOLYLINE
  5
6A6
330
1F
100
AcDbEntity
  8
Sichtbare_Kanten_TC_020513_DIN_
  6
Continuous
 62
     7
100
AcDbPolyline
 90
        2
 70
     0
 43
0.5
 10
136.076753926015
 20
124.9558373871169
 10
136.076753926015
 20
124.8181824721089
  0
LWPOLYLINE
  5
6A7
330
1F
100
AcDbEntity
  8
Sichtbare_Kanten_TC_020513_DIN_
  6
Continuous
 62
     7
100
AcDbPolyline
 90
        2
 70
     0
 43
0.5
 10
136.076753926015
 20
124.7181824721089
 10
136.076753926015
 20
124.8181824721089
  0
LWPOLYLINE
  5
6A8
330
1F
100
AcDbEntity
  8
Sichtbare_Kanten_TC_020513_DIN_
  6
Continuous
 62
     7
100
AcDbPolyline
 90
        2
 70
     0
 43
0.5
 10
133.176753926015
 20
124.8181824721089
 10
133.176753926015
 20
124.7181824721089
  0
LWPOLYLINE
  5
6A9
330
1F
100
AcDbEntity
  8
Sichtbare_Kanten_TC_020513_DIN_
  6
Continuous
 62
     7
100
AcDbPolyline
 90
        2
 70
     0
 43
0.5
 10
164.443391228606
 20
140.7566456936139
 10
165.227387375669
 20
140.7566456936139
  0
LWPOLYLINE
  5
6AA
330
1F
100
AcDbEntity
  8
Sichtbare_Kanten_TC_020513_DIN_
  6
Continuous
 62
     7
100
AcDbPolyline
 90
        2
 70
     0
 43
0.5
 10
165.227387375669
 20
140.7566456936139
 10
165.843391228606
 20
140.7566456936139
  0
LWPOLYLINE
  5
6AB
330
1F
100
AcDbEntity
  8
Sichtbare_Kanten_TC_020513_DIN_
  6
Continuous
 62
     7
100
AcDbPolyline
 90
        2
 70
     0
 43
0.5
 10
165.974560326754
 20
140.1649801271769
 10
165.416271237993
 20
139.9046456496229
  0
LWPOLYLINE
  5
6AC
330
1F
100
AcDbEntity
  8
Sichtbare_Kanten_TC_020513_DIN_
  6
Continuous
 62
     7
100
AcDbPolyline
 90
        2
 70
     0
 43
0.5
 10
165.416271237993
 20
139.9046456496229
 10
164.705729424903
 20
139.5733145607399
  0
LWPOLYLINE
  5
6AD
330
1F
100
AcDbEntity
  8
Sichtbare_Kanten_TC_020513_DIN_
  6
Continuous
 62
     7
100
AcDbPolyline
 90
        2
 70
     0
 43
0.5
 10
38.37675392601477
 20
125.5392000845259
 10
38.37675392601477
 20
122.7392000845259
  0
LWPOLYLINE
  5
6AE
330
1F
100
AcDbEntity
  8
Sichtbare_Kanten_TC_020513_DIN_
  6
Continuous
 62
     7
100
AcDbPolyline
 90
        2
 70
     0
 43
0.5
 10
31.37675392601472
 20
122.7392000845259
 10
31.37675392601477
 20
125.5392000845259
  0
LWPOLYLINE
  5
6AF
330
1F
100
AcDbEntity
  8
Sichtbare_Kanten_TC_020513_DIN_
  6
Continuous
 62
     7
100
AcDbPolyline
 90
        2
 70
     0
 43
0.5
 10
38.37675392601477
 20
122.7392000845259
 10
31.37675392601472
 20
122.7392000845259
  0
LWPOLYLINE
  5
6B0
330
1F
100
AcDbEntity
  8
Sichtbare_Kanten_TC_020513_DIN_
  6
Continuous
 62
     7
100
AcDbPolyline
 90
        2
 70
     0
 43
0.5
 10
35.64777842712658
 20
139.5733145607399
 10
33.07918276647922
 20
134.0649433904909
  0
LWPOLYLINE
  5
6B1
330
1F
100
AcDbEntity
  8
Sichtbare_Kanten_TC_020513_DIN_
  6
Continuous
 62
     7
100
AcDbPolyline
 90
        2
 70
     0
 43
0.5
 10
31.81035186462788
 20
134.6566089569279
 10
34.37894752527529
 20
140.1649801271769
  0
LWPOLYLINE
  5
6B2
330
1F
100
AcDbEntity
  8
Sichtbare_Kanten_TC_020513_DIN_
  6
Continuous
 62
     7
100
AcDbPolyline
 90
        2
 70
     0
 43
0.5
 10
31.18387865103978
 20
133.3131328148739
 10
32.45270955289107
 20
132.7214672484369
  0
LWPOLYLINE
  5
6B3
330
1F
100
AcDbEntity
  8
Sichtbare_Kanten_TC_020513_DIN_
  6
Continuous
 62
     7
100
AcDbPolyline
 90
        2
 70
     0
 43
0.5
 10
31.81035186462788
 20
134.6566089569279
 10
31.18387865103978
 20
133.3131328148739
  0
LWPOLYLINE
  5
6B4
330
1F
100
AcDbEntity
  8
Sichtbare_Kanten_TC_020513_DIN_
  6
Continuous
 62
     7
100
AcDbPolyline
 90
        2
 70
     0
 43
0.5
 10
32.45270955289107
 20
132.7214672484369
 10
33.07918276647922
 20
134.0649433904909
  0
LWPOLYLINE
  5
6B5
330
1F
100
AcDbEntity
  8
Sichtbare_Kanten_TC_020513_DIN_
  6
Continuous
 62
     7
100
AcDbPolyline
 90
        2
 70
     0
 43
0.5
 10
67.17675392601478
 20
124.7181824721089
 10
66.67675392601478
 20
124.7181824721089
  0
LWPOLYLINE
  5
6B6
330
1F
100
AcDbEntity
  8
Sichtbare_Kanten_TC_020513_DIN_
  6
Continuous
 62
     7
100
AcDbPolyline
 90
        2
 70
     0
 43
0.5
 10
67.17675392601478
 20
124.7181824721089
 10
67.17675392601478
 20
123.3181824721089
  0
LWPOLYLINE
  5
6B7
330
1F
100
AcDbEntity
  8
Sichtbare_Kanten_TC_020513_DIN_
  6
Continuous
 62
     7
100
AcDbPolyline
 90
        2
 70
     0
 43
0.5
 10
66.67675392601478
 20
123.3181824721089
 10
67.17675392601478
 20
123.3181824721089
  0
LWPOLYLINE
  5
6B8
330
1F
100
AcDbEntity
  8
Sichtbare_Kanten_TC_020513_DIN_
  6
Continuous
 62
     7
100
AcDbPolyline
 90
        2
 70
     0
 43
0.5
 10
64.7767539260148
 20
124.7181824721089
 10
66.67675392601478
 20
124.7181824721089
  0
LWPOLYLINE
  5
6B9
330
1F
100
AcDbEntity
  8
Sichtbare_Kanten_TC_020513_DIN_
  6
Continuous
 62
     7
100
AcDbPolyline
 90
        2
 70
     0
 43
0.5
 10
66.67675392601478
 20
123.3181824721089
 10
64.7767539260148
 20
123.3181824721089
  0
LWPOLYLINE
  5
6BA
330
1F
100
AcDbEntity
  8
Sichtbare_Kanten_TC_020513_DIN_
  6
Continuous
 62
     7
100
AcDbPolyline
 90
        2
 70
     0
 43
0.5
 10
64.7767539260148
 20
124.7181824721089
 10
64.2767539260148
 20
124.7181824721089
  0
LWPOLYLINE
  5
6BB
330
1F
100
AcDbEntity
  8
Sichtbare_Kanten_TC_020513_DIN_
  6
Continuous
 62
     7
100
AcDbPolyline
 90
        2
 70
     0
 43
0.5
 10
64.2767539260148
 20
123.3181824721089
 10
64.7767539260148
 20
123.3181824721089
  0
LWPOLYLINE
  5
6BC
330
1F
100
AcDbEntity
  8
Sichtbare_Kanten_TC_020513_DIN_
  6
Continuous
 62
     7
100
AcDbPolyline
 90
        2
 70
     0
 43
0.5
 10
64.2767539260148
 20
124.7181824721089
 10
64.2767539260148
 20
123.3181824721089
  0
LWPOLYLINE
  5
6BD
330
1F
100
AcDbEntity
  8
Sichtbare_Kanten_TC_020513_DIN_
  6
Continuous
 62
     7
100
AcDbPolyline
 90
        2
 70
     0
 43
0.5
 10
33.11011662342401
 20
152.1334600247019
 10
28.17584123062818
 20
152.1334600247019
  0
LWPOLYLINE
  5
6BE
330
1F
100
AcDbEntity
  8
Sichtbare_Kanten_TC_020513_DIN_
  6
Continuous
 62
     7
100
AcDbPolyline
 90
        2
 70
     0
 43
0.5
 10
28.17584123062818
 20
153.5334600247019
 10
33.11011662342401
 20
153.5334600247019
  0
LWPOLYLINE
  5
6BF
330
1F
100
AcDbEntity
  8
Sichtbare_Kanten_TC_020513_DIN_
  6
Continuous
 62
     7
100
AcDbPolyline
 90
        2
 70
     0
 43
0.5
 10
26.69347932083332
 20
152.1334600247019
 10
28.17584123062818
 20
152.1334600247019
  0
LWPOLYLINE
  5
6C0
330
1F
100
AcDbEntity
  8
Sichtbare_Kanten_TC_020513_DIN_
  6
Continuous
 62
     7
100
AcDbPolyline
 90
        2
 70
     0
 43
0.5
 10
26.69347932083332
 20
152.1334600247019
 10
26.69347932083332
 20
153.5334600247019
  0
LWPOLYLINE
  5
6C1
330
1F
100
AcDbEntity
  8
Sichtbare_Kanten_TC_020513_DIN_
  6
Continuous
 62
     7
100
AcDbPolyline
 90
        2
 70
     0
 43
0.5
 10
28.17584123062818
 20
153.5334600247019
 10
26.69347932083332
 20
153.5334600247019
  0
LWPOLYLINE
  5
6C2
330
1F
100
AcDbEntity
  8
Sichtbare_Kanten_TC_020513_DIN_
  6
Continuous
 62
     7
100
AcDbPolyline
 90
        2
 70
     0
 43
0.5
 10
34.51011662342398
 20
142.1315274833869
 10
34.51011662342398
 20
142.3168227221119
  0
LWPOLYLINE
  5
6C3
330
1F
100
AcDbEntity
  8
Sichtbare_Kanten_TC_020513_DIN_
  6
Continuous
 62
     7
100
AcDbPolyline
 90
        2
 70
     0
 43
0.5
 10
35.91011662342402
 20
142.3168227221119
 10
35.91011662342402
 20
142.1315274833869
  0
LWPOLYLINE
  5
6C4
330
1F
100
AcDbEntity
  8
Sichtbare_Kanten_TC_020513_DIN_
  6
Continuous
 62
     7
100
AcDbPolyline
 90
        2
 70
     0
 43
0.5
 10
34.51011662342398
 20
140.7566456936139
 10
34.51011662342398
 20
142.1315274833869
  0
LWPOLYLINE
  5
6C5
330
1F
100
AcDbEntity
  8
Sichtbare_Kanten_TC_020513_DIN_
  6
Continuous
 62
     7
100
AcDbPolyline
 90
        2
 70
     0
 43
0.5
 10
35.91011662342402
 20
142.1315274833869
 10
35.91011662342402
 20
140.7566456936139
  0
LWPOLYLINE
  5
6C6
330
1F
100
AcDbEntity
  8
Sichtbare_Kanten_TC_020513_DIN_
  6
Continuous
 62
     7
100
AcDbPolyline
 90
        2
 70
     0
 43
0.5
 10
64.2767539260148
 20
124.9558373871169
 10
64.2767539260148
 20
124.8181824721089
  0
LWPOLYLINE
  5
6C7
330
1F
100
AcDbEntity
  8
Sichtbare_Kanten_TC_020513_DIN_
  6
Continuous
 62
     7
100
AcDbPolyline
 90
        2
 70
     0
 43
0.5
 10
64.24061326438027
 20
124.9558373871169
 10
64.2767539260148
 20
124.9558373871169
  0
LWPOLYLINE
  5
6C8
330
1F
100
AcDbEntity
  8
Sichtbare_Kanten_TC_020513_DIN_
  6
Continuous
 62
     7
100
AcDbPolyline
 90
        2
 70
     0
 43
0.5
 10
53.28860816429511
 20
137.9994152584899
 10
53.41570851962069
 20
136.5466515494199
  0
LWPOLYLINE
  5
6C9
330
1F
100
AcDbEntity
  8
Sichtbare_Kanten_TC_020513_DIN_
  6
Continuous
 62
     7
100
AcDbPolyline
 90
        2
 70
     0
 43
0.5
 10
42.9869450982074
 20
146.3479871502089
 10
53.10070198744188
 20
138.3479871502089
  0
LWPOLYLINE
  5
6CA
330
1F
100
AcDbEntity
  8
Sichtbare_Kanten_TC_020513_DIN_
  6
Continuous
 62
     7
100
AcDbPolyline
 90
        2
 70
     0
 43
0.5
 10
39.46105345220047
 20
142.6964403777259
 10
42.28460416292188
 20
146.2660285593089
  0
LWPOLYLINE
  5
6CB
330
1F
100
AcDbEntity
  8
Sichtbare_Kanten_TC_020513_DIN_
  6
Continuous
 62
     7
100
AcDbPolyline
 90
        2
 70
     0
 43
0.5
 10
37.31011662342399
 20
142.3168227221119
 10
38.67675392601478
 20
142.3168227221119
  0
LWPOLYLINE
  5
6CC
330
1F
100
AcDbEntity
  8
Sichtbare_Kanten_TC_020513_DIN_
  6
Continuous
 62
     7
100
AcDbPolyline
 90
        2
 70
     0
 43
0.5
 10
66.93703560684287
 20
159.9558373871169
 10
58.93703560684287
 20
159.9558373871169
  0
LWPOLYLINE
  5
6CD
330
1F
100
AcDbEntity
  8
Sichtbare_Kanten_TC_020513_DIN_
  6
Continuous
 62
     7
100
AcDbPolyline
 90
        2
 70
     0
 43
0.5
 10
57.38975197034512
 20
146.6290476541309
 10
58.45539697883868
 20
149.5147297902439
  0
LWPOLYLINE
  5
6CE
330
1F
100
AcDbEntity
  8
Sichtbare_Kanten_TC_020513_DIN_
  6
Continuous
 62
     7
100
AcDbPolyline
 90
        2
 70
     0
 43
0.5
 10
59.67675392601478
 20
142.9558373871169
 10
57.44787598967849
 20
146.1709719178149
  0
LWPOLYLINE
  5
6CF
330
1F
100
AcDbEntity
  8
Sichtbare_Kanten_TC_020513_DIN_
  6
Continuous
 62
     7
100
AcDbPolyline
 90
        2
 70
     0
 43
0.5
 10
59.67675392601478
 20
141.2803927074529
 10
59.67675392601478
 20
142.9558373871169
  0
LWPOLYLINE
  5
6D0
330
1F
100
AcDbEntity
  8
Sichtbare_Kanten_TC_020513_DIN_
  6
Continuous
 62
     7
100
AcDbPolyline
 90
        2
 70
     0
 43
0.5
 10
67.17675392601478
 20
124.8181824721089
 10
67.17675392601478
 20
124.8572252059819
  0
LWPOLYLINE
  5
6D1
330
1F
100
AcDbEntity
  8
Sichtbare_Kanten_TC_020513_DIN_
  6
Continuous
 62
     7
100
AcDbPolyline
 90
        2
 70
     0
 43
0.5
 10
40.65130839958579
 20
154.7992986559069
 10
37.31011662342399
 20
152.7520789713079
  0
LWPOLYLINE
  5
6D2
330
1F
100
AcDbEntity
  8
Sichtbare_Kanten_TC_020513_DIN_
  6
Continuous
 62
     7
100
AcDbPolyline
 90
        2
 70
     0
 43
0.5
 10
27.87675392601477
 20
122.7392000845259
 10
27.87675392601477
 20
124.1392000845259
  0
LWPOLYLINE
  5
6D3
330
1F
100
AcDbEntity
  8
Sichtbare_Kanten_TC_020513_DIN_
  6
Continuous
 62
     7
100
AcDbPolyline
 90
        2
 70
     0
 43
0.5
 10
31.37675392601477
 20
125.5392000845259
 10
31.37675392601477
 20
127.9558373871169
  0
LWPOLYLINE
  5
6D4
330
1F
100
AcDbEntity
  8
Sichtbare_Kanten_TC_020513_DIN_
  6
Continuous
 62
     7
100
AcDbPolyline
 90
        2
 70
     0
 43
0.5
 10
39.37675392601477
 20
135.9558373871169
 10
52.67675392601478
 20
135.9558373871159
  0
LWPOLYLINE
  5
6D5
330
1F
100
AcDbEntity
  8
Sichtbare_Kanten_TC_020513_DIN_
  6
Continuous
 62
     7
100
AcDbPolyline
 90
        2
 70
     0
 43
0.5
 10
69.67675392601478
 20
134.9558373871169
 10
69.67675392601478
 20
121.4558373871169
  0
LWPOLYLINE
  5
6D6
330
1F
100
AcDbEntity
  8
Sichtbare_Kanten_TC_020513_DIN_
  6
Continuous
 62
     7
100
AcDbPolyline
 90
        2
 70
     0
 43
0.5
 10
50.67675392601478
 20
128.9558373871169
 10
39.37675392601477
 20
128.9558373871169
  0
LWPOLYLINE
  5
6D7
330
1F
100
AcDbEntity
  8
Sichtbare_Kanten_TC_020513_DIN_
  6
Continuous
 62
     7
100
AcDbPolyline
 90
        2
 70
     0
 43
0.5
 10
38.37675392601477
 20
127.9558373871169
 10
38.37675392601477
 20
125.5392000845259
  0
LWPOLYLINE
  5
6D8
330
1F
100
AcDbEntity
  8
Sichtbare_Kanten_TC_020513_DIN_
  6
Continuous
 62
     7
100
AcDbPolyline
 90
        2
 70
     0
 43
0.5
 10
30.98786503712591
 20
124.1392000845259
 10
31.37675392601472
 20
124.1392000845259
  0
LWPOLYLINE
  5
6D9
330
1F
100
AcDbEntity
  8
Sichtbare_Kanten_TC_020513_DIN_
  6
Continuous
 62
     7
100
AcDbPolyline
 90
        2
 70
     0
 43
0.5
 10
30.98786503712591
 20
124.1392000845259
 10
27.87675392601477
 20
124.1392000845259
  0
LWPOLYLINE
  5
6DA
330
1F
100
AcDbEntity
  8
Sichtbare_Kanten_TC_020513_DIN_
  6
Continuous
 62
     7
100
AcDbPolyline
 90
        2
 70
     0
 43
0.5
 10
38.37675392601477
 20
124.1392000845259
 10
38.41440884102218
 20
124.1392000845259
  0
LWPOLYLINE
  5
6DB
330
1F
100
AcDbEntity
  8
Sichtbare_Kanten_TC_020513_DIN_
  6
Continuous
 62
     7
100
AcDbPolyline
 90
        2
 70
     0
 43
0.5
 10
38.5144088410222
 20
122.6392000845259
 10
38.5144088410222
 20
121.8015451695179
  0
LWPOLYLINE
  5
6DC
330
1F
100
AcDbEntity
  8
Sichtbare_Kanten_TC_020513_DIN_
  6
Continuous
 62
     7
100
AcDbPolyline
 90
        2
 70
     0
 43
0.5
 10
39.91440884102218
 20
122.6392000845259
 10
39.91440884102218
 20
121.8015451695179
  0
LWPOLYLINE
  5
6DD
330
1F
100
AcDbEntity
  8
Sichtbare_Kanten_TC_020513_DIN_
  6
Continuous
 62
     7
100
AcDbPolyline
 90
        2
 70
     0
 43
0.5
 10
38.5144088410222
 20
121.8015451695179
 10
39.91440884102218
 20
121.8015451695179
  0
LWPOLYLINE
  5
6DE
330
1F
100
AcDbEntity
  8
Sichtbare_Kanten_TC_020513_DIN_
  6
Continuous
 62
     7
100
AcDbPolyline
 90
        2
 70
     0
 43
0.5
 10
30.98786503712591
 20
122.7392000845259
 10
27.87675392601477
 20
122.7392000845259
  0
LWPOLYLINE
  5
6DF
330
1F
100
AcDbEntity
  8
Sichtbare_Kanten_TC_020513_DIN_
  6
Continuous
 62
     7
100
AcDbPolyline
 90
        2
 70
     0
 43
0.5
 10
30.98786503712591
 20
122.7392000845259
 10
31.37675392601472
 20
122.7392000845259
  0
LWPOLYLINE
  5
6E0
330
1F
100
AcDbEntity
  8
Sichtbare_Kanten_TC_020513_DIN_
  6
Continuous
 62
     7
100
AcDbPolyline
 90
        2
 70
     0
 43
0.5
 10
38.37675392601477
 20
122.7392000845259
 10
38.41440884102218
 20
122.7392000845259
  0
LWPOLYLINE
  5
6E1
330
1F
100
AcDbEntity
  8
Sichtbare_Kanten_TC_020513_DIN_
  6
Continuous
 62
     7
100
AcDbPolyline
 90
        2
 70
     0
 43
0.5
 10
168.976753926015
 20
125.5392000845259
 10
168.976753926015
 20
122.7392000845259
  0
LWPOLYLINE
  5
6E2
330
1F
100
AcDbEntity
  8
Sichtbare_Kanten_TC_020513_DIN_
  6
Continuous
 62
     7
100
AcDbPolyline
 90
        2
 70
     0
 43
0.5
 10
161.976753926015
 20
122.7392000845259
 10
161.976753926015
 20
125.5392000845259
  0
LWPOLYLINE
  5
6E3
330
1F
100
AcDbEntity
  8
Sichtbare_Kanten_TC_020513_DIN_
  6
Continuous
 62
     7
100
AcDbPolyline
 90
        2
 70
     0
 43
0.5
 10
168.976753926015
 20
122.7392000845259
 10
161.976753926015
 20
122.7392000845259
  0
LWPOLYLINE
  5
6E4
330
1F
100
AcDbEntity
  8
Sichtbare_Kanten_TC_020513_DIN_
  6
Continuous
 62
     7
100
AcDbPolyline
 90
        2
 70
     0
 43
0.5
 10
161.839099011007
 20
122.6392000845259
 10
161.839099011007
 20
121.8015451695189
  0
LWPOLYLINE
  5
6E5
330
1F
100
AcDbEntity
  8
Sichtbare_Kanten_TC_020513_DIN_
  6
Continuous
 62
     7
100
AcDbPolyline
 90
        2
 70
     0
 43
0.5
 10
160.439099011007
 20
122.6392000845259
 10
160.439099011007
 20
121.8015451695189
  0
LWPOLYLINE
  5
6E6
330
1F
100
AcDbEntity
  8
Sichtbare_Kanten_TC_020513_DIN_
  6
Continuous
 62
     7
100
AcDbPolyline
 90
        2
 70
     0
 43
0.5
 10
161.839099011007
 20
121.8015451695189
 10
160.439099011007
 20
121.8015451695189
  0
LWPOLYLINE
  5
6E7
330
1F
100
AcDbEntity
  8
Sichtbare_Kanten_TC_020513_DIN_
  6
Continuous
 62
     7
100
AcDbPolyline
 90
        2
 70
     0
 43
0.5
 10
161.976753926015
 20
127.9558373871169
 10
161.976753926015
 20
125.5392000845259
  0
LWPOLYLINE
  5
6E8
330
1F
100
AcDbEntity
  8
Sichtbare_Kanten_TC_020513_DIN_
  6
Continuous
 62
     7
100
AcDbPolyline
 90
        2
 70
     0
 43
0.5
 10
149.676753926015
 20
128.9558373871169
 10
160.976753926015
 20
128.9558373871169
  0
LWPOLYLINE
  5
6E9
330
1F
100
AcDbEntity
  8
Sichtbare_Kanten_TC_020513_DIN_
  6
Continuous
 62
     7
100
AcDbPolyline
 90
        2
 70
     0
 43
0.5
 10
130.676753926015
 20
134.9558373871169
 10
130.676753926015
 20
121.4558373871169
  0
LWPOLYLINE
  5
6EA
330
1F
100
AcDbEntity
  8
Sichtbare_Kanten_TC_020513_DIN_
  6
Continuous
 62
     7
100
AcDbPolyline
 90
        2
 70
     0
 43
0.5
 10
160.976753926015
 20
135.9558373871169
 10
147.676753926015
 20
135.9558373871169
  0
LWPOLYLINE
  5
6EB
330
1F
100
AcDbEntity
  8
Sichtbare_Kanten_TC_020513_DIN_
  6
Continuous
 62
     7
100
AcDbPolyline
 90
        2
 70
     0
 43
0.5
 10
168.976753926015
 20
125.5392000845259
 10
168.976753926015
 20
127.9558373871169
  0
LWPOLYLINE
  5
6EC
330
1F
100
AcDbEntity
  8
Sichtbare_Kanten_TC_020513_DIN_
  6
Continuous
 62
     7
100
AcDbPolyline
 90
        2
 70
     0
 43
0.5
 10
169.365642814904
 20
124.1392000845259
 10
172.476753926015
 20
124.1392000845259
  0
LWPOLYLINE
  5
6ED
330
1F
100
AcDbEntity
  8
Sichtbare_Kanten_TC_020513_DIN_
  6
Continuous
 62
     7
100
AcDbPolyline
 90
        2
 70
     0
 43
0.5
 10
169.365642814904
 20
124.1392000845259
 10
168.976753926015
 20
124.1392000845259
  0
LWPOLYLINE
  5
6EE
330
1F
100
AcDbEntity
  8
Sichtbare_Kanten_TC_020513_DIN_
  6
Continuous
 62
     7
100
AcDbPolyline
 90
        2
 70
     0
 43
0.5
 10
161.976753926015
 20
124.1392000845259
 10
161.939099011007
 20
124.1392000845259
  0
LWPOLYLINE
  5
6EF
330
1F
100
AcDbEntity
  8
Sichtbare_Kanten_TC_020513_DIN_
  6
Continuous
 62
     7
100
AcDbPolyline
 90
        2
 70
     0
 43
0.5
 10
172.476753926015
 20
122.7392000845259
 10
172.476753926015
 20
124.1392000845259
  0
LWPOLYLINE
  5
6F0
330
1F
100
AcDbEntity
  8
Sichtbare_Kanten_TC_020513_DIN_
  6
Continuous
 62
     7
100
AcDbPolyline
 90
        2
 70
     0
 43
0.5
 10
161.976753926015
 20
122.7392000845259
 10
161.939099011007
 20
122.7392000845259
  0
LWPOLYLINE
  5
6F1
330
1F
100
AcDbEntity
  8
Sichtbare_Kanten_TC_020513_DIN_
  6
Continuous
 62
     7
100
AcDbPolyline
 90
        2
 70
     0
 43
0.5
 10
169.365642814904
 20
122.7392000845259
 10
168.976753926015
 20
122.7392000845259
  0
LWPOLYLINE
  5
6F2
330
1F
100
AcDbEntity
  8
Sichtbare_Kanten_TC_020513_DIN_
  6
Continuous
 62
     7
100
AcDbPolyline
 90
        2
 70
     0
 43
0.5
 10
169.365642814904
 20
122.7392000845259
 10
172.476753926015
 20
122.7392000845259
  0
LWPOLYLINE
  5
6F3
330
1F
100
AcDbEntity
  8
Sichtbare_Kanten_TC_020513_DIN_
  6
Continuous
 62
     7
100
AcDbPolyline
 90
        2
 70
     0
 43
0.5
 10
160.226753926015
 20
141.9558373871169
 10
154.426753926015
 20
141.9558373871169
  0
LWPOLYLINE
  5
6F4
330
1F
100
AcDbEntity
  8
Sichtbare_Kanten_TC_020513_DIN_
  6
Continuous
 62
     7
100
AcDbPolyline
 90
        2
 70
     0
 43
0.5
 10
160.226753926015
 20
141.9558373871169
 10
160.226753926015
 20
137.9558373871169
  0
LWPOLYLINE
  5
6F5
330
1F
100
AcDbEntity
  8
Sichtbare_Kanten_TC_020513_DIN_
  6
Continuous
 62
     7
100
AcDbPolyline
 90
        2
 70
     0
 43
0.5
 10
151.813920888193
 20
141.9558373871169
 10
154.426753926015
 20
141.9558373871169
  0
LWPOLYLINE
  5
6F6
330
1F
100
AcDbEntity
  8
Sichtbare_Kanten_TC_020513_DIN_
  6
Continuous
 62
     7
100
AcDbPolyline
 90
        2
 70
     0
 43
0.5
 10
59.67675392601478
 20
141.9558373871169
 10
140.676753926015
 20
141.9558373871169
  0
LWPOLYLINE
  5
6F7
330
1F
100
AcDbEntity
  8
Sichtbare_Kanten_TC_020513_DIN_
  6
Continuous
 62
     7
100
AcDbPolyline
 90
        2
 70
     0
 43
0.5
 10
45.92675392601478
 20
141.9558373871169
 10
48.53958696383609
 20
141.9558373871169
  0
LWPOLYLINE
  5
6F8
330
1F
100
AcDbEntity
  8
Sichtbare_Kanten_TC_020513_DIN_
  6
Continuous
 62
     7
100
AcDbPolyline
 90
        2
 70
     0
 43
0.5
 10
45.92675392601478
 20
141.9558373871169
 10
40.12675392601477
 20
141.9558373871169
  0
LWPOLYLINE
  5
6F9
330
1F
100
AcDbEntity
  8
Sichtbare_Kanten_TC_020513_DIN_
  6
Continuous
 62
     7
100
AcDbPolyline
 90
        2
 70
     0
 43
0.5
 10
40.12675392601477
 20
141.9558373871169
 10
40.12675392601477
 20
137.9558373871169
  0
LWPOLYLINE
  5
6FA
330
1F
100
AcDbEntity
  8
Sichtbare_Kanten_TC_020513_DIN_
  6
Continuous
 62
     7
100
AcDbPolyline
 90
        2
 70
     0
 43
0.5
 10
39.92675392601478
 20
108.9558373871169
 10
28.17675392601478
 20
108.9558373871169
  0
LWPOLYLINE
  5
6FB
330
1F
100
AcDbEntity
  8
Sichtbare_Kanten_TC_020513_DIN_
  6
Continuous
 62
     7
100
AcDbPolyline
 90
        2
 70
     0
 43
0.5
 10
39.92675392601478
 20
66.95583738711647
 10
28.17675392601478
 20
66.95583738711647
  0
LWPOLYLINE
  5
6FC
330
1F
100
AcDbEntity
  8
Sichtbare_Kanten_TC_020513_DIN_
  6
Continuous
 62
     7
100
AcDbPolyline
 90
        2
 70
     0
 43
0.5
 10
41.17675392601478
 20
81.29519824182778
 10
41.17675392601478
 20
94.61647653240487
  0
LWPOLYLINE
  5
6FD
330
1F
100
AcDbEntity
  8
Sichtbare_Kanten_TC_020513_DIN_
  6
Continuous
 62
     7
100
AcDbPolyline
 90
        2
 70
     0
 43
0.5
 10
28.17675392601478
 20
108.9558373871169
 10
28.17675392601478
 20
107.9558373871169
  0
LWPOLYLINE
  5
6FE
330
1F
100
AcDbEntity
  8
Sichtbare_Kanten_TC_020513_DIN_
  6
Continuous
 62
     7
100
AcDbPolyline
 90
        2
 70
     0
 43
0.5
 10
172.176753926015
 20
108.9558373871169
 10
160.426753926015
 20
108.9558373871169
  0
LWPOLYLINE
  5
6FF
330
1F
100
AcDbEntity
  8
Sichtbare_Kanten_TC_020513_DIN_
  6
Continuous
 62
     7
100
AcDbPolyline
 90
        2
 70
     0
 43
0.5
 10
172.176753926015
 20
66.95583738711647
 10
160.426753926015
 20
66.95583738711647
  0
LWPOLYLINE
  5
700
330
1F
100
AcDbEntity
  8
Sichtbare_Kanten_TC_020513_DIN_
  6
Continuous
 62
     7
100
AcDbPolyline
 90
        2
 70
     0
 43
0.5
 10
172.176753926015
 20
108.9558373871169
 10
172.176753926015
 20
66.95583738711647
  0
LWPOLYLINE
  5
701
330
1F
100
AcDbEntity
  8
Sichtbare_Kanten_TC_020513_DIN_
  6
Continuous
 62
     7
100
AcDbPolyline
 90
        2
 70
     0
 43
0.5
 10
159.176753926015
 20
81.29519824182788
 10
159.176753926015
 20
94.61647653240487
  0
LWPOLYLINE
  5
702
330
1F
100
AcDbEntity
  8
Sichtbare_Kanten_TC_020513_DIN_
  6
Continuous
 62
     7
100
AcDbPolyline
 90
        2
 70
     0
 43
0.5
 10
160.426753926015
 20
65.95583738711647
 10
160.426753926015
 20
74.65405179269348
  0
LWPOLYLINE
  5
703
330
1F
100
AcDbEntity
  8
Sichtbare_Kanten_TC_020513_DIN_
  6
Continuous
 62
     7
100
AcDbPolyline
 90
        2
 70
     0
 43
0.5
 10
154.426753926015
 20
137.9558373871169
 10
160.426753926015
 20
137.9558373871169
  0
LWPOLYLINE
  5
704
330
1F
100
AcDbEntity
  8
Sichtbare_Kanten_TC_020513_DIN_
  6
Continuous
 62
     7
100
AcDbPolyline
 90
        2
 70
     0
 43
0.5
 10
160.426753926015
 20
135.9558373871169
 10
160.426753926015
 20
137.9558373871169
  0
LWPOLYLINE
  5
705
330
1F
100
AcDbEntity
  8
Sichtbare_Kanten_TC_020513_DIN_
  6
Continuous
 62
     7
100
AcDbPolyline
 90
        2
 70
     0
 43
0.5
 10
160.426753926015
 20
101.2576229815399
 10
160.426753926015
 20
128.9558373871169
  0
LWPOLYLINE
  5
706
330
1F
100
AcDbEntity
  8
Sichtbare_Kanten_TC_020513_DIN_
  6
Continuous
 62
     7
100
AcDbPolyline
 90
        2
 70
     0
 43
0.5
 10
39.92675392601478
 20
135.9558373871169
 10
39.92675392601478
 20
137.9558373871169
  0
LWPOLYLINE
  5
707
330
1F
100
AcDbEntity
  8
Sichtbare_Kanten_TC_020513_DIN_
  6
Continuous
 62
     7
100
AcDbPolyline
 90
        2
 70
     0
 43
0.5
 10
39.92675392601478
 20
101.2576229815399
 10
39.92675392601478
 20
128.9558373871169
  0
LWPOLYLINE
  5
708
330
1F
100
AcDbEntity
  8
Sichtbare_Kanten_TC_020513_DIN_
  6
Continuous
 62
     7
100
AcDbPolyline
 90
        2
 70
     0
 43
0.5
 10
39.92675392601478
 20
137.9558373871169
 10
45.92675392601478
 20
137.9558373871169
  0
LWPOLYLINE
  5
709
330
1F
100
AcDbEntity
  8
Sichtbare_Kanten_TC_020513_DIN_
  6
Continuous
 62
     7
100
AcDbPolyline
 90
        2
 70
     0
 43
0.5
 10
39.92675392601478
 20
65.95583738711647
 10
39.92675392601478
 20
74.65405179269348
  0
LWPOLYLINE
  5
70A
330
1F
100
AcDbEntity
  8
Sichtbare_Kanten_TC_020513_DIN_
  6
Continuous
 62
     7
100
AcDbPolyline
 90
        2
 70
     0
 43
0.5
 10
53.29242073402088
 20
137.9558373871169
 10
45.92675392601478
 20
137.9558373871169
  0
LWPOLYLINE
  5
70B
330
1F
100
AcDbEntity
  8
Sichtbare_Kanten_TC_020513_DIN_
  6
Continuous
 62
     7
100
AcDbPolyline
 90
        2
 70
     0
 43
0.5
 10
131.352198605678
 20
137.9558373871169
 10
69.00130924635152
 20
137.9558373871169
  0
LWPOLYLINE
  5
70C
330
1F
100
AcDbEntity
  8
Sichtbare_Kanten_TC_020513_DIN_
  6
Continuous
 62
     7
100
AcDbPolyline
 90
        2
 70
     0
 43
0.5
 10
154.426753926015
 20
137.9558373871169
 10
147.061087118008
 20
137.9558373871169
  0
LWPOLYLINE
  5
70D
330
1F
100
AcDbEntity
  8
Sichtbare_Kanten_TC_020513_DIN_
  6
Continuous
 62
     7
100
AcDbPolyline
 90
        2
 70
     0
 43
0.5
 10
37.17675392601478
 20
61.95583738711648
 10
28.17675392601478
 20
61.95583738711648
  0
LWPOLYLINE
  5
70E
330
1F
100
AcDbEntity
  8
Sichtbare_Kanten_TC_020513_DIN_
  6
Continuous
 62
     7
100
AcDbPolyline
 90
        2
 70
     0
 43
0.5
 10
28.17675392601478
 20
61.95583738711648
 10
28.17675392601478
 20
65.95583738711647
  0
LWPOLYLINE
  5
70F
330
1F
100
AcDbEntity
  8
Sichtbare_Kanten_TC_020513_DIN_
  6
Continuous
 62
     7
100
AcDbPolyline
 90
        2
 70
     0
 43
0.5
 10
47.17675392601478
 20
61.95583738711648
 10
37.17675392601478
 20
61.95583738711648
  0
LWPOLYLINE
  5
710
330
1F
100
AcDbEntity
  8
Sichtbare_Kanten_TC_020513_DIN_
  6
Continuous
 62
     7
100
AcDbPolyline
 90
        2
 70
     0
 43
0.5
 10
37.17675392601478
 20
61.95583738711648
 10
37.17675392601478
 20
65.95583738711647
  0
LWPOLYLINE
  5
711
330
1F
100
AcDbEntity
  8
Sichtbare_Kanten_TC_020513_DIN_
  6
Continuous
 62
     7
100
AcDbPolyline
 90
        2
 70
     0
 43
0.5
 10
163.176753926015
 20
61.95583738711648
 10
153.176753926015
 20
61.95583738711648
  0
LWPOLYLINE
  5
712
330
1F
100
AcDbEntity
  8
Sichtbare_Kanten_TC_020513_DIN_
  6
Continuous
 62
     7
100
AcDbPolyline
 90
        2
 70
     0
 43
0.5
 10
172.176753926015
 20
61.95583738711648
 10
163.176753926015
 20
61.95583738711648
  0
LWPOLYLINE
  5
713
330
1F
100
AcDbEntity
  8
Sichtbare_Kanten_TC_020513_DIN_
  6
Continuous
 62
     7
100
AcDbPolyline
 90
        2
 70
     0
 43
0.5
 10
163.176753926015
 20
61.95583738711648
 10
163.176753926015
 20
65.95583738711647
  0
LWPOLYLINE
  5
714
330
1F
100
AcDbEntity
  8
Sichtbare_Kanten_TC_020513_DIN_
  6
Continuous
 62
     7
100
AcDbPolyline
 90
        2
 70
     0
 43
0.5
 10
172.176753926015
 20
61.95583738711648
 10
172.176753926015
 20
65.95583738711647
  0
LWPOLYLINE
  5
715
330
1F
100
AcDbEntity
  8
Sichtbare_Kanten_TC_020513_DIN_
  6
Continuous
 62
     7
100
AcDbPolyline
 90
        2
 70
     0
 43
0.5
 10
172.176753926015
 20
65.95583738711647
 10
163.176753926015
 20
65.95583738711647
  0
LWPOLYLINE
  5
716
330
1F
100
AcDbEntity
  8
Sichtbare_Kanten_TC_020513_DIN_
  6
Continuous
 62
     7
100
AcDbPolyline
 90
        2
 70
     0
 43
0.5
 10
163.176753926015
 20
65.95583738711647
 10
153.176753926015
 20
65.95583738711647
  0
LWPOLYLINE
  5
717
330
1F
100
AcDbEntity
  8
Sichtbare_Kanten_TC_020513_DIN_
  6
Continuous
 62
     7
100
AcDbPolyline
 90
        2
 70
     0
 43
0.5
 10
47.17675392601478
 20
65.95583738711647
 10
37.17675392601478
 20
65.95583738711647
  0
LWPOLYLINE
  5
718
330
1F
100
AcDbEntity
  8
Sichtbare_Kanten_TC_020513_DIN_
  6
Continuous
 62
     7
100
AcDbPolyline
 90
        2
 70
     0
 43
0.5
 10
37.17675392601478
 20
65.95583738711647
 10
28.17675392601478
 20
65.95583738711647
  0
LWPOLYLINE
  5
719
330
1F
100
AcDbEntity
  8
Sichtbare_Kanten_TC_020513_DIN_
  6
Continuous
 62
     7
100
AcDbPolyline
 90
        2
 70
     0
 43
0.5
 10
153.176753926015
 20
61.95583738711648
 10
153.176753926015
 20
65.95583738711647
  0
LWPOLYLINE
  5
71A
330
1F
100
AcDbEntity
  8
Sichtbare_Kanten_TC_020513_DIN_
  6
Continuous
 62
     7
100
AcDbPolyline
 90
        2
 70
     0
 43
0.5
 10
153.176753926015
 20
61.95583738711648
 10
47.17675392601478
 20
61.95583738711648
  0
LWPOLYLINE
  5
71B
330
1F
100
AcDbEntity
  8
Sichtbare_Kanten_TC_020513_DIN_
  6
Continuous
 62
     7
100
AcDbPolyline
 90
        2
 70
     0
 43
0.5
 10
47.17675392601478
 20
61.95583738711648
 10
47.17675392601478
 20
65.95583738711647
  0
LWPOLYLINE
  5
71C
330
1F
100
AcDbEntity
  8
Sichtbare_Kanten_TC_020513_DIN_
  6
Continuous
 62
     7
100
AcDbPolyline
 90
        2
 70
     0
 43
0.5
 10
98.92675392601478
 20
97.46583738711688
 10
98.92675392601478
 20
100.5888374426479
  0
LWPOLYLINE
  5
71D
330
1F
100
AcDbEntity
  8
Sichtbare_Kanten_TC_020513_DIN_
  6
Continuous
 62
     7
100
AcDbPolyline
 90
        2
 70
     0
 43
0.5
 10
99.37707391138991
 20
100.7384098447129
 10
100.1767539260148
 20
99.66741087281888
  0
LWPOLYLINE
  5
71E
330
1F
100
AcDbEntity
  8
Sichtbare_Kanten_TC_020513_DIN_
  6
Continuous
 62
     7
100
AcDbPolyline
 90
        2
 70
     0
 43
0.5
 10
100.1767539260148
 20
99.66741087281888
 10
100.9764339406396
 20
100.7384098447129
  0
LWPOLYLINE
  5
71F
330
1F
100
AcDbEntity
  8
Sichtbare_Kanten_TC_020513_DIN_
  6
Continuous
 62
     7
100
AcDbPolyline
 90
        2
 70
     0
 43
0.5
 10
101.4267539260148
 20
100.5888374426479
 10
101.4267539260148
 20
96.32283733158587
  0
LWPOLYLINE
  5
720
330
1F
100
AcDbEntity
  8
Sichtbare_Kanten_TC_020513_DIN_
  6
Continuous
 62
     7
100
AcDbPolyline
 90
        2
 70
     0
 43
0.5
 10
100.9267539260148
 20
96.32283733158587
 10
100.9267539260148
 20
99.83615850729588
  0
LWPOLYLINE
  5
721
330
1F
100
AcDbEntity
  8
Sichtbare_Kanten_TC_020513_DIN_
  6
Continuous
 62
     7
100
AcDbPolyline
 90
        2
 70
     0
 43
0.5
 10
100.9267539260148
 20
99.83615850729588
 10
100.1767539260148
 20
98.83169520418788
  0
LWPOLYLINE
  5
722
330
1F
100
AcDbEntity
  8
Sichtbare_Kanten_TC_020513_DIN_
  6
Continuous
 62
     7
100
AcDbPolyline
 90
        2
 70
     0
 43
0.5
 10
100.1767539260148
 20
98.83169520418788
 10
99.42675392601478
 20
99.83615850729588
  0
LWPOLYLINE
  5
723
330
1F
100
AcDbEntity
  8
Sichtbare_Kanten_TC_020513_DIN_
  6
Continuous
 62
     7
100
AcDbPolyline
 90
        2
 70
     0
 43
0.5
 10
99.42675392601478
 20
99.83615850729588
 10
99.42675392601478
 20
97.46583738711688
  0
LWPOLYLINE
  5
724
330
1F
100
AcDbEntity
  8
Sichtbare_Kanten_TC_020513_DIN_
  6
Continuous
 62
     7
100
AcDbPolyline
 90
        2
 70
     0
 43
0.5
 10
97.92675392601473
 20
96.89950399825288
 10
97.92675392601478
 20
100.0121707759809
  0
LWPOLYLINE
  5
725
330
1F
100
AcDbEntity
  8
Sichtbare_Kanten_TC_020513_DIN_
  6
Continuous
 62
     7
100
AcDbPolyline
 90
        2
 70
     0
 43
0.5
 10
98.42675392601473
 20
100.0121707759809
 10
98.42675392601473
 20
97.04392705381788
  0
LWPOLYLINE
  5
726
330
1F
100
AcDbEntity
  8
Sichtbare_Kanten_TC_020513_DIN_
  6
Continuous
 62
     7
100
AcDbPolyline
 90
        2
 70
     0
 43
0.5
 10
98.42675392601473
 20
97.04392705381788
 10
100.3016428735072
 20
95.96274109409688
  0
LWPOLYLINE
  5
727
330
1F
100
AcDbEntity
  8
Sichtbare_Kanten_TC_020513_DIN_
  6
Continuous
 62
     7
100
AcDbPolyline
 90
        2
 70
     0
 43
0.5
 10
100.0518649785223
 20
95.52960023574188
 10
98.0518649785223
 20
96.68293356907488
  0
LWPOLYLINE
  5
728
330
1F
100
AcDbEntity
  8
Sichtbare_Kanten_TC_020513_DIN_
  6
Continuous
 62
     7
100
AcDbPolyline
 90
        2
 70
     0
 43
0.5
 10
93.67630932098803
 20
98.45583738711689
 10
100.1767539260148
 20
102.2044271093489
  0
LWPOLYLINE
  5
729
330
1F
100
AcDbEntity
  8
Sichtbare_Kanten_TC_020513_DIN_
  6
Continuous
 62
     7
100
AcDbPolyline
 90
        2
 70
     0
 43
0.5
 10
100.1767539260148
 20
102.2044271093489
 10
106.677198531042
 20
98.45583738711689
  0
LWPOLYLINE
  5
72A
330
1F
100
AcDbEntity
  8
Sichtbare_Kanten_TC_020513_DIN_
  6
Continuous
 62
     7
100
AcDbPolyline
 90
        2
 70
     0
 43
0.5
 10
106.677198531042
 20
98.45583738711689
 10
100.1767539260148
 20
94.70724766488588
  0
LWPOLYLINE
  5
72B
330
1F
100
AcDbEntity
  8
Sichtbare_Kanten_TC_020513_DIN_
  6
Continuous
 62
     7
100
AcDbPolyline
 90
        2
 70
     0
 43
0.5
 10
100.1767539260148
 20
94.70724766488588
 10
93.67630932098803
 20
98.45583738711689
  0
LWPOLYLINE
  5
72C
330
1F
100
AcDbEntity
  8
Sichtbare_Kanten_TC_020513_DIN_
  6
Continuous
 62
     7
100
AcDbPolyline
 90
        2
 70
     0
 43
0.5
 10
100.1767539260148
 20
101.9158373871169
 10
94.17675392601478
 20
98.45583738711689
  0
LWPOLYLINE
  5
72D
330
1F
100
AcDbEntity
  8
Sichtbare_Kanten_TC_020513_DIN_
  6
Continuous
 62
     7
100
AcDbPolyline
 90
        2
 70
     0
 43
0.5
 10
106.176753926015
 20
98.45583738711689
 10
100.1767539260148
 20
101.9158373871169
  0
LWPOLYLINE
  5
72E
330
1F
100
AcDbEntity
  8
Sichtbare_Kanten_TC_020513_DIN_
  6
Continuous
 62
     7
100
AcDbPolyline
 90
        2
 70
     0
 43
0.5
 10
100.1767539260148
 20
94.99583738711688
 10
106.176753926015
 20
98.45583738711689
  0
LWPOLYLINE
  5
72F
330
1F
100
AcDbEntity
  8
Sichtbare_Kanten_TC_020513_DIN_
  6
Continuous
 62
     7
100
AcDbPolyline
 90
        2
 70
     0
 43
0.5
 10
94.17675392601478
 20
98.45583738711689
 10
100.1767539260148
 20
94.99583738711688
  0
LWPOLYLINE
  5
730
330
1F
100
AcDbEntity
  8
Sichtbare_Kanten_TC_020513_DIN_
  6
Continuous
 62
     7
100
AcDbPolyline
 90
        2
 70
     0
 43
0.5
 10
96.92675392601478
 20
97.46583738711688
 10
96.92675392601478
 20
99.44583738711688
  0
LWPOLYLINE
  5
731
330
1F
100
AcDbEntity
  8
Sichtbare_Kanten_TC_020513_DIN_
  6
Continuous
 62
     7
100
AcDbPolyline
 90
        2
 70
     0
 43
0.5
 10
97.42675392601478
 20
99.44583738711688
 10
97.42675392601478
 20
97.46583738711688
  0
LWPOLYLINE
  5
732
330
1F
100
AcDbEntity
  8
Sichtbare_Kanten_TC_020513_DIN_
  6
Continuous
 62
     7
100
AcDbPolyline
 90
        2
 70
     0
 43
0.5
 10
102.3016428735072
 20
100.2287412051589
 10
103.301642873507
 20
99.65207453849288
  0
LWPOLYLINE
  5
733
330
1F
100
AcDbEntity
  8
Sichtbare_Kanten_TC_020513_DIN_
  6
Continuous
 62
     7
100
AcDbPolyline
 90
        2
 70
     0
 43
0.5
 10
103.0518649785223
 20
99.21893368013689
 10
102.4267539260148
 20
99.57941438708288
  0
LWPOLYLINE
  5
734
330
1F
100
AcDbEntity
  8
Sichtbare_Kanten_TC_020513_DIN_
  6
Continuous
 62
     7
100
AcDbPolyline
 90
        2
 70
     0
 43
0.5
 10
102.4267539260148
 20
99.57941438708288
 10
102.4267539260148
 20
98.70583738711689
  0
LWPOLYLINE
  5
735
330
1F
100
AcDbEntity
  8
Sichtbare_Kanten_TC_020513_DIN_
  6
Continuous
 62
     7
100
AcDbPolyline
 90
        2
 70
     0
 43
0.5
 10
102.4267539260148
 20
98.70583738711689
 10
103.176753926015
 20
98.70583738711689
  0
LWPOLYLINE
  5
736
330
1F
100
AcDbEntity
  8
Sichtbare_Kanten_TC_020513_DIN_
  6
Continuous
 62
     7
100
AcDbPolyline
 90
        2
 70
     0
 43
0.5
 10
103.176753926015
 20
98.20583738711689
 10
102.4267539260148
 20
98.20583738711689
  0
LWPOLYLINE
  5
737
330
1F
100
AcDbEntity
  8
Sichtbare_Kanten_TC_020513_DIN_
  6
Continuous
 62
     7
100
AcDbPolyline
 90
        2
 70
     0
 43
0.5
 10
102.4267539260148
 20
98.20583738711689
 10
102.4267539260148
 20
97.33226038715088
  0
LWPOLYLINE
  5
738
330
1F
100
AcDbEntity
  8
Sichtbare_Kanten_TC_020513_DIN_
  6
Continuous
 62
     7
100
AcDbPolyline
 90
        2
 70
     0
 43
0.5
 10
102.4267539260148
 20
97.33226038715088
 10
103.0518649785222
 20
97.69274109409687
  0
LWPOLYLINE
  5
739
330
1F
100
AcDbEntity
  8
Sichtbare_Kanten_TC_020513_DIN_
  6
Continuous
 62
     7
100
AcDbPolyline
 90
        2
 70
     0
 43
0.5
 10
103.301642873507
 20
97.25960023574189
 10
102.3016428735072
 20
96.68293356907488
  0
LWPOLYLINE
  5
73A
330
1F
100
AcDbEntity
  8
Sichtbare_Kanten_TC_020513_DIN_
  6
Continuous
 62
     7
100
AcDbPolyline
 90
        2
 70
     0
 43
0.5
 10
101.9267539260148
 20
96.89950399825288
 10
101.9267539260148
 20
100.0121707759809
  0
LINE
  5
73B
330
1F
100
AcDbEntity
  8
1
  6
Continuous
 62
     2
100
AcDbLine
 10
16.74280395429867
 20
123.9558373871159
 30
0.0
 11
16.74280395429867
 21
123.9558390389283
 31
0.0
  0
LINE
  5
73C
330
1F
100
AcDbEntity
  8
1
  6
Continuous
 62
     2
100
AcDbLine
 10
183.610703897731
 20
123.9558373871159
 30
0.0
 11
183.610703897731
 21
124.9558373871159
 31
0.0
  0
LINE
  5
73D
330
1F
100
AcDbEntity
  8
1
  6
Continuous
 62
     2
100
AcDbLine
 10
171.999146355271
 20
67.95583738711649
 30
0.0
 11
172.299146355271
 21
67.95583738711649
 31
0.0
  0
LINE
  5
73E
330
1F
100
AcDbEntity
  8
1
  6
Continuous
 62
     2
100
AcDbLine
 10
28.17675392601478
 20
107.9558373871169
 30
0.0
 11
27.97675392601478
 21
107.9558373871169
 31
0.0
  0
LWPOLYLINE
  5
73F
330
1F
100
AcDbEntity
  8
Sichtbare_Kanten_TC_020513_DIN_
  6
Continuous
 62
     7
100
AcDbPolyline
 90
        2
 70
     0
 43
0.5
 10
28.17675392601478
 20
107.9558373871169
 10
28.17675392601478
 20
67.95583738711647
  0
LINE
  5
740
330
1F
100
AcDbEntity
  8
1
  6
Continuous
 62
     2
100
AcDbLine
 10
28.3173145031791
 20
67.95583738711647
 30
0.0
 11
28.17675392601478
 21
67.95583738711647
 31
0.0
  0
LWPOLYLINE
  5
741
330
1F
100
AcDbEntity
  8
Sichtbare_Kanten_TC_020513_DIN_
  6
Continuous
 62
     7
100
AcDbPolyline
 90
        2
 70
     0
 43
0.5
 10
28.17675392601478
 20
67.95583738711647
 10
28.17675392601478
 20
66.95583738711647
  0
LWPOLYLINE
  5
742
330
1F
100
AcDbEntity
  8
Skizziergeometrie_TC_020513_DIN_
  6
DASHED
 62
     7
100
AcDbPolyline
 90
        2
 70
     0
 43
0.35
 10
183.610703897731
 20
123.9558373871159
 42
0.23286298784844
 10
164.510657204382
 20
162.7433311835899
 42
0.23286298784844
  0
LWPOLYLINE
  5
743
330
1F
100
AcDbEntity
  8
Skizziergeometrie_TC_020513_DIN_
  6
DASHED
 62
     7
100
AcDbPolyline
 90
        2
 70
     0
 43
0.35
 10
16.74280395429867
 20
123.9558373871159
 42
0.02402454364447
 10
16.96849242195941
 20
119.2615087783609
 42
0.02402454364447
  0
LWPOLYLINE
  5
744
330
1F
100
AcDbEntity
  8
Gewinde_TC_020513_DIN_
  6
Continuous
 62
     7
100
AcDbPolyline
 90
        2
 70
     0
 43
0.25
 10
247.994298800288
 20
67.11533571787518
 42
0.17706678054295
 10
260.5695560644821
 20
74.39974119389028
 42
0.17706678054295
  0
LWPOLYLINE
  5
745
330
1F
100
AcDbEntity
  8
Gewinde_TC_020513_DIN_
  6
Continuous
 62
     7
100
AcDbPolyline
 90
        2
 70
     0
 43
0.25
 10
260.5695560644821
 20
101.5119335803429
 42
0.46805561887838
 10
228.069556064483
 20
101.5119335803429
 42
0.46805561887838
  0
LWPOLYLINE
  5
746
330
1F
100
AcDbEntity
  8
Sichtbare_Kanten_TC_020513_DIN_
  6
Continuous
 62
     7
100
AcDbPolyline
 90
        2
 70
     0
 43
0.5
 10
221.757084724875
 20
124.1392000845259
 42
0.1179779741531
 10
221.9195560644899
 20
124.8181824721089
 42
0.1179779741531
  0
LWPOLYLINE
  5
747
330
1F
100
AcDbEntity
  8
Sichtbare_Kanten_TC_020513_DIN_
  6
Continuous
 62
     7
100
AcDbPolyline
 90
        2
 70
     0
 43
0.5
 10
220.4195560644899
 20
124.7181824721089
 42
0.4142135623731
 10
220.51955606449
 20
124.8181824721089
 42
0.4142135623731
  0
LWPOLYLINE
  5
748
330
1F
100
AcDbEntity
  8
Sichtbare_Kanten_TC_020513_DIN_
  6
Continuous
 62
     7
100
AcDbPolyline
 90
        2
 70
     0
 43
0.5
 10
266.71955606449
 20
124.8181824721089
 42
0.11797797415311
 10
266.882027404105
 20
124.1392000845259
 42
0.11797797415311
  0
LWPOLYLINE
  5
749
330
1F
100
AcDbEntity
  8
Sichtbare_Kanten_TC_020513_DIN_
  6
Continuous
 62
     7
100
AcDbPolyline
 90
        2
 70
     0
 43
0.5
 10
268.11955606449
 20
124.8181824721089
 42
0.4142135623731
 10
268.21955606449
 20
124.7181824721089
 42
0.4142135623731
  0
LWPOLYLINE
  5
74A
330
1F
100
AcDbEntity
  8
Sichtbare_Kanten_TC_020513_DIN_
  6
Continuous
 62
     7
100
AcDbPolyline
 90
        2
 70
     0
 43
0.5
 10
268.0195560644801
 20
124.1392000845259
 42
0.4142135623731
 10
269.4195560644799
 20
125.5392000845259
 42
0.4142135623731
  0
LWPOLYLINE
  5
74B
330
1F
100
AcDbEntity
  8
Sichtbare_Kanten_TC_020513_DIN_
  6
Continuous
 62
     7
100
AcDbPolyline
 90
        2
 70
     0
 43
0.5
 10
268.0195560644801
 20
122.7392000845259
 42
0.4142135623731
 10
270.8195560644859
 20
125.5392000845259
 42
0.4142135623731
  0
LWPOLYLINE
  5
74C
330
1F
100
AcDbEntity
  8
Sichtbare_Kanten_TC_020513_DIN_
  6
Continuous
 62
     7
100
AcDbPolyline
 90
        2
 70
     0
 43
0.5
 10
228.027674823644
 20
142.1315274833869
 42
0.33945425886399
 10
227.786193367072
 20
142.3168227221119
 42
0.33945425886399
  0
LWPOLYLINE
  5
74D
330
1F
100
AcDbEntity
  8
Sichtbare_Kanten_TC_020513_DIN_
  6
Continuous
 62
     7
100
AcDbPolyline
 90
        2
 70
     0
 43
0.5
 10
224.130963502617
 20
150.6740351124249
 42
0.22169466264283
 10
224.8970079457359
 20
150.3168227221119
 42
0.22169466264283
  0
LWPOLYLINE
  5
74E
330
1F
100
AcDbEntity
  8
Sichtbare_Kanten_TC_020513_DIN_
  6
Continuous
 62
     7
100
AcDbPolyline
 90
        2
 70
     0
 43
0.5
 10
227.786193367072
 20
150.3168227221119
 42
0.19329431317669
 10
228.823654337837
 20
150.7334600247019
 42
0.19329431317669
  0
LWPOLYLINE
  5
74F
330
1F
100
AcDbEntity
  8
Sichtbare_Kanten_TC_020513_DIN_
  6
Continuous
 62
     7
100
AcDbPolyline
 90
        2
 70
     0
 43
0.5
 10
260.85291876189
 20
142.3168227221119
 42
0.33945425886399
 10
260.611437305318
 20
142.1315274833869
 42
0.33945425886399
  0
LWPOLYLINE
  5
750
330
1F
100
AcDbEntity
  8
Sichtbare_Kanten_TC_020513_DIN_
  6
Continuous
 62
     7
100
AcDbPolyline
 90
        2
 70
     0
 43
0.5
 10
263.7421041832259
 20
150.3168227221119
 42
0.22169466264287
 10
264.508148626345
 20
150.6740351124249
 42
0.22169466264287
  0
LWPOLYLINE
  5
751
330
1F
100
AcDbEntity
  8
Sichtbare_Kanten_TC_020513_DIN_
  6
Continuous
 62
     7
100
AcDbPolyline
 90
        2
 70
     0
 43
0.5
 10
259.815457791124
 20
150.7334600247019
 42
0.19329431317682
 10
260.85291876189
 20
150.3168227221119
 42
0.19329431317682
  0
LWPOLYLINE
  5
752
330
1F
100
AcDbEntity
  8
Sichtbare_Kanten_TC_020513_DIN_
  6
Continuous
 62
     7
100
AcDbPolyline
 90
        2
 70
     0
 43
0.5
 10
254.102918761891
 20
122.3015451695179
 42
0.4142135623731
 10
254.602918761891
 20
121.8015451695179
 42
0.4142135623731
  0
LWPOLYLINE
  5
753
330
1F
100
AcDbEntity
  8
Sichtbare_Kanten_TC_020513_DIN_
  6
Continuous
 62
     7
100
AcDbPolyline
 90
        2
 70
     0
 43
0.5
 10
234.036193367073
 20
121.8015451695179
 42
0.4142135623731
 10
234.536193367073
 20
122.3015451695179
 42
0.4142135623731
  0
LWPOLYLINE
  5
754
330
1F
100
AcDbEntity
  8
Sichtbare_Kanten_TC_020513_DIN_
  6
Continuous
 62
     7
100
AcDbPolyline
 90
        2
 70
     0
 43
0.5
 10
219.21955606448
 20
125.5392000845259
 42
0.4142135623731
 10
220.61955606448
 20
124.1392000845259
 42
0.4142135623731
  0
LWPOLYLINE
  5
755
330
1F
100
AcDbEntity
  8
Sichtbare_Kanten_TC_020513_DIN_
  6
Continuous
 62
     7
100
AcDbPolyline
 90
        2
 70
     0
 43
0.5
 10
217.81955606448
 20
125.5392000845259
 42
0.4142135623731
 10
220.61955606448
 20
122.7392000845259
 42
0.4142135623731
  0
LWPOLYLINE
  5
756
330
1F
100
AcDbEntity
  8
Sichtbare_Kanten_TC_020513_DIN_
  6
Continuous
 62
     7
100
AcDbPolyline
 90
        2
 70
     0
 43
0.5
 10
215.819556064489
 20
130.9558373871169
 42
1.0
 10
217.219556064489
 20
130.9558373871169
 42
1.0
  0
LWPOLYLINE
  5
757
330
1F
100
AcDbEntity
  8
Sichtbare_Kanten_TC_020513_DIN_
  6
Continuous
 62
     7
100
AcDbPolyline
 90
        2
 70
     0
 43
0.5
 10
217.219556064489
 20
138.9558373871169
 42
1.0
 10
215.819556064489
 20
138.9558373871169
 42
1.0
  0
LWPOLYLINE
  5
758
330
1F
100
AcDbEntity
  8
Sichtbare_Kanten_TC_020513_DIN_
  6
Continuous
 62
     7
100
AcDbPolyline
 90
        2
 70
     0
 43
0.5
 10
272.819556064489
 20
138.9558373871169
 42
1.0
 10
271.419556064489
 20
138.9558373871169
 42
1.0
  0
LWPOLYLINE
  5
759
330
1F
100
AcDbEntity
  8
Sichtbare_Kanten_TC_020513_DIN_
  6
Continuous
 62
     7
100
AcDbPolyline
 90
        2
 70
     0
 43
0.5
 10
271.419556064489
 20
130.9558373871169
 42
1.0
 10
272.819556064489
 20
130.9558373871169
 42
1.0
  0
LWPOLYLINE
  5
75A
330
1F
100
AcDbEntity
  8
Sichtbare_Kanten_TC_020513_DIN_
  6
Continuous
 62
     7
100
AcDbPolyline
 90
        2
 70
     0
 43
0.5
 10
142.905631862351
 20
146.1709719178149
 42
0.24469844322927
 10
142.963755881684
 20
146.6290476541309
 42
0.24469844322927
  0
LWPOLYLINE
  5
75B
330
1F
100
AcDbEntity
  8
Sichtbare_Kanten_TC_020513_DIN_
  6
Continuous
 62
     7
100
AcDbPolyline
 90
        2
 70
     0
 43
0.5
 10
141.898110873191
 20
149.5147297902439
 42
0.45934868709194
 10
135.498200793773
 20
151.8933373871169
 42
0.45934868709194
  0
LWPOLYLINE
  5
75C
330
1F
100
AcDbEntity
  8
Sichtbare_Kanten_TC_020513_DIN_
  6
Continuous
 62
     7
100
AcDbPolyline
 90
        2
 70
     0
 43
0.5
 10
133.416472245187
 20
159.9558373871169
 42
1.29099444873574
 10
135.498200793773
 20
151.8933373871169
 42
1.29099444873574
  0
LWPOLYLINE
  5
75D
330
1F
100
AcDbEntity
  8
Sichtbare_Kanten_TC_020513_DIN_
  6
Continuous
 62
     7
100
AcDbPolyline
 90
        2
 70
     0
 43
0.5
 10
159.702199452444
 20
154.7992986559069
 42
0.13830205371533
 10
141.416472245187
 20
159.9558373871169
 42
0.13830205371533
  0
LWPOLYLINE
  5
75E
330
1F
100
AcDbEntity
  8
Sichtbare_Kanten_TC_020513_DIN_
  6
Continuous
 62
     7
100
AcDbPolyline
 90
        2
 70
     0
 43
0.5
 10
160.892454399829
 20
142.6964403777259
 42
0.22928747325004
 10
161.676753926015
 20
142.3168227221119
 42
0.22928747325004
  0
LWPOLYLINE
  5
75F
330
1F
100
AcDbEntity
  8
Sichtbare_Kanten_TC_020513_DIN_
  6
Continuous
 62
     7
100
AcDbPolyline
 90
        2
 70
     0
 43
0.5
 10
158.068903689108
 20
146.2660285593089
 42
0.41421356237393
 10
157.366562753822
 20
146.3479871502089
 42
0.41421356237393
  0
LWPOLYLINE
  5
760
330
1F
100
AcDbEntity
  8
Sichtbare_Kanten_TC_020513_DIN_
  6
Continuous
 62
     7
100
AcDbPolyline
 90
        2
 70
     0
 43
0.5
 10
147.252805864588
 20
138.3479871502089
 42
0.20643458883425
 10
147.064899687734
 20
137.9994152584899
 42
0.20643458883425
  0
LWPOLYLINE
  5
761
330
1F
100
AcDbEntity
  8
Sichtbare_Kanten_TC_020513_DIN_
  6
Continuous
 62
     7
100
AcDbPolyline
 90
        2
 70
     0
 43
0.5
 10
38.5144088410222
 20
122.6392000845259
 42
0.4142135623731
 10
38.41440884102218
 20
122.7392000845259
 42
0.4142135623731
  0
LWPOLYLINE
  5
762
330
1F
100
AcDbEntity
  8
Sichtbare_Kanten_TC_020513_DIN_
  6
Continuous
 62
     7
100
AcDbPolyline
 90
        2
 70
     0
 43
0.5
 10
39.91440884102218
 20
122.6392000845259
 42
0.4142135623731
 10
38.41440884102218
 20
124.1392000845259
 42
0.4142135623731
  0
LWPOLYLINE
  5
763
330
1F
100
AcDbEntity
  8
Sichtbare_Kanten_TC_020513_DIN_
  6
Continuous
 62
     7
100
AcDbPolyline
 90
        2
 70
     0
 43
0.5
 10
53.28860816429511
 20
137.9994152584899
 42
0.20643458883398
 10
53.10070198744188
 20
138.3479871502089
 42
0.20643458883398
  0
LWPOLYLINE
  5
764
330
1F
100
AcDbEntity
  8
Sichtbare_Kanten_TC_020513_DIN_
  6
Continuous
 62
     7
100
AcDbPolyline
 90
        2
 70
     0
 43
0.5
 10
42.9869450982074
 20
146.3479871502089
 42
0.41421356237371
 10
42.28460416292188
 20
146.2660285593089
 42
0.41421356237371
  0
LWPOLYLINE
  5
765
330
1F
100
AcDbEntity
  8
Sichtbare_Kanten_TC_020513_DIN_
  6
Continuous
 62
     7
100
AcDbPolyline
 90
        2
 70
     0
 43
0.5
 10
38.67675392601478
 20
142.3168227221119
 42
0.22928747324998
 10
39.46105345220047
 20
142.6964403777259
 42
0.22928747324998
  0
LWPOLYLINE
  5
766
330
1F
100
AcDbEntity
  8
Sichtbare_Kanten_TC_020513_DIN_
  6
Continuous
 62
     7
100
AcDbPolyline
 90
        2
 70
     0
 43
0.5
 10
58.93703560684287
 20
159.9558373871169
 42
0.13830205371533
 10
40.65130839958579
 20
154.7992986559069
 42
0.13830205371533
  0
LWPOLYLINE
  5
767
330
1F
100
AcDbEntity
  8
Sichtbare_Kanten_TC_020513_DIN_
  6
Continuous
 62
     7
100
AcDbPolyline
 90
        2
 70
     0
 43
0.5
 10
64.85530705825641
 20
151.8933373871169
 42
1.2909944487358
 10
66.93703560684287
 20
159.9558373871169
 42
1.2909944487358
  0
LWPOLYLINE
  5
768
330
1F
100
AcDbEntity
  8
Sichtbare_Kanten_TC_020513_DIN_
  6
Continuous
 62
     7
100
AcDbPolyline
 90
        2
 70
     0
 43
0.5
 10
64.85530705825641
 20
151.8933373871169
 42
0.45934868709192
 10
58.45539697883868
 20
149.5147297902439
 42
0.45934868709192
  0
LWPOLYLINE
  5
769
330
1F
100
AcDbEntity
  8
Sichtbare_Kanten_TC_020513_DIN_
  6
Continuous
 62
     7
100
AcDbPolyline
 90
        2
 70
     0
 43
0.5
 10
57.38975197034512
 20
146.6290476541309
 42
0.24469844322925
 10
57.44787598967849
 20
146.1709719178149
 42
0.24469844322925
  0
LWPOLYLINE
  5
76A
330
1F
100
AcDbEntity
  8
Sichtbare_Kanten_TC_020513_DIN_
  6
Continuous
 62
     7
100
AcDbPolyline
 90
        2
 70
     0
 43
0.5
 10
39.37675392601477
 20
135.9558373871169
 42
0.4142135623731
 10
31.37675392601477
 20
127.9558373871169
 42
0.4142135623731
  0
LWPOLYLINE
  5
76B
330
1F
100
AcDbEntity
  8
Sichtbare_Kanten_TC_020513_DIN_
  6
Continuous
 62
     7
100
AcDbPolyline
 90
        2
 70
     0
 43
0.5
 10
52.67675392601478
 20
135.9558373871159
 42
0.22156182771683
 10
53.05961332447652
 20
136.1342496370239
 42
0.22156182771683
  0
LWPOLYLINE
  5
76C
330
1F
100
AcDbEntity
  8
Sichtbare_Kanten_TC_020513_DIN_
  6
Continuous
 62
     7
100
AcDbPolyline
 90
        2
 70
     0
 43
0.5
 10
59.60901182151309
 20
141.2478131006959
 42
0.10501060713036
 10
53.05961332447652
 20
136.1342496370239
 42
0.10501060713036
  0
LWPOLYLINE
  5
76D
330
1F
100
AcDbEntity
  8
Sichtbare_Kanten_TC_020513_DIN_
  6
Continuous
 62
     7
100
AcDbPolyline
 90
        2
 70
     0
 43
0.5
 10
69.67675392601478
 20
134.9558373871169
 42
0.55426459289411
 10
59.60901182151309
 20
141.2478131006959
 42
0.55426459289411
  0
LWPOLYLINE
  5
76E
330
1F
100
AcDbEntity
  8
Sichtbare_Kanten_TC_020513_DIN_
  6
Continuous
 62
     7
100
AcDbPolyline
 90
        2
 70
     0
 43
0.5
 10
69.33381372652218
 20
120.9811456776199
 42
0.32343613623218
 10
69.67675392601478
 20
121.4558373871169
 42
0.32343613623218
  0
LWPOLYLINE
  5
76F
330
1F
100
AcDbEntity
  8
Sichtbare_Kanten_TC_020513_DIN_
  6
Continuous
 62
     7
100
AcDbPolyline
 90
        2
 70
     0
 43
0.5
 10
51.12660120941098
 20
128.6740973734199
 42
0.37600288377067
 10
69.33381372652218
 20
120.9811456776199
 42
0.37600288377067
  0
LWPOLYLINE
  5
770
330
1F
100
AcDbEntity
  8
Sichtbare_Kanten_TC_020513_DIN_
  6
Continuous
 62
     7
100
AcDbPolyline
 90
        2
 70
     0
 43
0.5
 10
51.12660120941098
 20
128.6740973734199
 42
0.287302430787
 10
50.67675392601478
 20
128.9558373871169
 42
0.287302430787
  0
LWPOLYLINE
  5
771
330
1F
100
AcDbEntity
  8
Sichtbare_Kanten_TC_020513_DIN_
  6
Continuous
 62
     7
100
AcDbPolyline
 90
        2
 70
     0
 43
0.5
 10
39.37675392601477
 20
128.9558373871169
 42
0.4142135623731
 10
38.37675392601477
 20
127.9558373871169
 42
0.4142135623731
  0
LWPOLYLINE
  5
772
330
1F
100
AcDbEntity
  8
Sichtbare_Kanten_TC_020513_DIN_
  6
Continuous
 62
     7
100
AcDbPolyline
 90
        2
 70
     0
 43
0.5
 10
161.939099011007
 20
124.1392000845259
 42
0.4142135623731
 10
160.439099011007
 20
122.6392000845259
 42
0.4142135623731
  0
LWPOLYLINE
  5
773
330
1F
100
AcDbEntity
  8
Sichtbare_Kanten_TC_020513_DIN_
  6
Continuous
 62
     7
100
AcDbPolyline
 90
        2
 70
     0
 43
0.5
 10
161.939099011007
 20
122.7392000845259
 42
0.4142135623731
 10
161.839099011007
 20
122.6392000845259
 42
0.4142135623731
  0
LWPOLYLINE
  5
774
330
1F
100
AcDbEntity
  8
Sichtbare_Kanten_TC_020513_DIN_
  6
Continuous
 62
     7
100
AcDbPolyline
 90
        2
 70
     0
 43
0.5
 10
161.976753926015
 20
127.9558373871169
 42
0.4142135623731
 10
160.976753926015
 20
128.9558373871169
 42
0.4142135623731
  0
LWPOLYLINE
  5
775
330
1F
100
AcDbEntity
  8
Sichtbare_Kanten_TC_020513_DIN_
  6
Continuous
 62
     7
100
AcDbPolyline
 90
        2
 70
     0
 43
0.5
 10
149.676753926015
 20
128.9558373871169
 42
0.28730243078719
 10
149.226906642618
 20
128.6740973734199
 42
0.28730243078719
  0
LWPOLYLINE
  5
776
330
1F
100
AcDbEntity
  8
Sichtbare_Kanten_TC_020513_DIN_
  6
Continuous
 62
     7
100
AcDbPolyline
 90
        2
 70
     0
 43
0.5
 10
131.019694125507
 20
120.9811456776199
 42
0.37600288377068
 10
149.226906642618
 20
128.6740973734199
 42
0.37600288377068
  0
LWPOLYLINE
  5
777
330
1F
100
AcDbEntity
  8
Sichtbare_Kanten_TC_020513_DIN_
  6
Continuous
 62
     7
100
AcDbPolyline
 90
        2
 70
     0
 43
0.5
 10
130.676753926015
 20
121.4558373871169
 42
0.32343613623189
 10
131.019694125507
 20
120.9811456776199
 42
0.32343613623189
  0
LWPOLYLINE
  5
778
330
1F
100
AcDbEntity
  8
Sichtbare_Kanten_TC_020513_DIN_
  6
Continuous
 62
     7
100
AcDbPolyline
 90
        2
 70
     0
 43
0.5
 10
140.744496030516
 20
141.2478131006959
 42
0.55426459289408
 10
130.676753926015
 20
134.9558373871169
 42
0.55426459289408
  0
LWPOLYLINE
  5
779
330
1F
100
AcDbEntity
  8
Sichtbare_Kanten_TC_020513_DIN_
  6
Continuous
 62
     7
100
AcDbPolyline
 90
        2
 70
     0
 43
0.5
 10
147.293894527553
 20
136.1342496370239
 42
0.10501060713036
 10
140.744496030516
 20
141.2478131006959
 42
0.10501060713036
  0
LWPOLYLINE
  5
77A
330
1F
100
AcDbEntity
  8
Sichtbare_Kanten_TC_020513_DIN_
  6
Continuous
 62
     7
100
AcDbPolyline
 90
        2
 70
     0
 43
0.5
 10
147.293894527553
 20
136.1342496370239
 42
0.22156182771693
 10
147.676753926015
 20
135.9558373871169
 42
0.22156182771693
  0
LWPOLYLINE
  5
77B
330
1F
100
AcDbEntity
  8
Sichtbare_Kanten_TC_020513_DIN_
  6
Continuous
 62
     7
100
AcDbPolyline
 90
        2
 70
     0
 43
0.5
 10
168.976753926015
 20
127.9558373871169
 42
0.4142135623731
 10
160.976753926015
 20
135.9558373871169
 42
0.4142135623731
  0
LWPOLYLINE
  5
77C
330
1F
100
AcDbEntity
  8
Sichtbare_Kanten_TC_020513_DIN_
  6
Continuous
 62
     7
100
AcDbPolyline
 90
        2
 70
     0
 43
0.5
 10
98.92675392601478
 20
97.46583738711688
 42
1.0
 10
99.42675392601478
 20
97.46583738711688
 42
1.0
  0
LWPOLYLINE
  5
77D
330
1F
100
AcDbEntity
  8
Sichtbare_Kanten_TC_020513_DIN_
  6
Continuous
 62
     7
100
AcDbPolyline
 90
        2
 70
     0
 43
0.5
 10
99.37707391138991
 20
100.7384098447129
 42
0.72157104868604
 10
98.92675392601478
 20
100.5888374426479
 42
0.72157104868604
  0
LWPOLYLINE
  5
77E
330
1F
100
AcDbEntity
  8
Sichtbare_Kanten_TC_020513_DIN_
  6
Continuous
 62
     7
100
AcDbPolyline
 90
        2
 70
     0
 43
0.5
 10
101.4267539260148
 20
100.5888374426479
 42
0.7215710486861
 10
100.9764339406396
 20
100.7384098447129
 42
0.7215710486861
  0
LWPOLYLINE
  5
77F
330
1F
100
AcDbEntity
  8
Sichtbare_Kanten_TC_020513_DIN_
  6
Continuous
 62
     7
100
AcDbPolyline
 90
        2
 70
     0
 43
0.5
 10
100.9267539260148
 20
96.32283733158587
 42
1.0
 10
101.4267539260148
 20
96.32283733158587
 42
1.0
  0
LWPOLYLINE
  5
780
330
1F
100
AcDbEntity
  8
Sichtbare_Kanten_TC_020513_DIN_
  6
Continuous
 62
     7
100
AcDbPolyline
 90
        2
 70
     0
 43
0.5
 10
98.42675392601473
 20
100.0121707759809
 42
1.0
 10
97.92675392601478
 20
100.0121707759809
 42
1.0
  0
LWPOLYLINE
  5
781
330
1F
100
AcDbEntity
  8
Sichtbare_Kanten_TC_020513_DIN_
  6
Continuous
 62
     7
100
AcDbPolyline
 90
        2
 70
     0
 43
0.5
 10
100.0518649785223
 20
95.52960023574188
 42
0.99999999999917
 10
100.3016428735072
 20
95.96274109409688
 42
0.99999999999917
  0
LWPOLYLINE
  5
782
330
1F
100
AcDbEntity
  8
Sichtbare_Kanten_TC_020513_DIN_
  6
Continuous
 62
     7
100
AcDbPolyline
 90
        2
 70
     0
 43
0.5
 10
97.92675392601473
 20
96.89950399825288
 42
0.26808661587628
 10
98.0518649785223
 20
96.68293356907488
 42
0.26808661587628
  0
LWPOLYLINE
  5
783
330
1F
100
AcDbEntity
  8
Sichtbare_Kanten_TC_020513_DIN_
  6
Continuous
 62
     7
100
AcDbPolyline
 90
        2
 70
     0
 43
0.5
 10
97.42675392601478
 20
99.44583738711688
 42
1.0
 10
96.92675392601478
 20
99.44583738711688
 42
1.0
  0
LWPOLYLINE
  5
784
330
1F
100
AcDbEntity
  8
Sichtbare_Kanten_TC_020513_DIN_
  6
Continuous
 62
     7
100
AcDbPolyline
 90
        2
 70
     0
 43
0.5
 10
96.92675392601478
 20
97.46583738711688
 42
1.0
 10
97.42675392601478
 20
97.46583738711688
 42
1.0
  0
LWPOLYLINE
  5
785
330
1F
100
AcDbEntity
  8
Sichtbare_Kanten_TC_020513_DIN_
  6
Continuous
 62
     7
100
AcDbPolyline
 90
        2
 70
     0
 43
0.5
 10
102.3016428735072
 20
100.2287412051589
 42
0.5771793306232
 10
101.9267539260148
 20
100.0121707759809
 42
0.5771793306232
  0
LWPOLYLINE
  5
786
330
1F
100
AcDbEntity
  8
Sichtbare_Kanten_TC_020513_DIN_
  6
Continuous
 62
     7
100
AcDbPolyline
 90
        2
 70
     0
 43
0.5
 10
103.0518649785223
 20
99.21893368013689
 42
1.0000000000012
 10
103.301642873507
 20
99.65207453849288
 42
1.0000000000012
  0
LWPOLYLINE
  5
787
330
1F
100
AcDbEntity
  8
Sichtbare_Kanten_TC_020513_DIN_
  6
Continuous
 62
     7
100
AcDbPolyline
 90
        2
 70
     0
 43
0.5
 10
103.176753926015
 20
98.20583738711689
 42
1.0
 10
103.176753926015
 20
98.70583738711689
 42
1.0
  0
LWPOLYLINE
  5
788
330
1F
100
AcDbEntity
  8
Sichtbare_Kanten_TC_020513_DIN_
  6
Continuous
 62
     7
100
AcDbPolyline
 90
        2
 70
     0
 43
0.5
 10
103.301642873507
 20
97.25960023574189
 42
1.00000000000036
 10
103.0518649785222
 20
97.69274109409687
 42
1.00000000000036
  0
LWPOLYLINE
  5
789
330
1F
100
AcDbEntity
  8
Sichtbare_Kanten_TC_020513_DIN_
  6
Continuous
 62
     7
100
AcDbPolyline
 90
        2
 70
     0
 43
0.5
 10
101.9267539260148
 20
96.89950399825288
 42
0.57717933062319
 10
102.3016428735072
 20
96.68293356907488
 42
0.57717933062319
  0
LWPOLYLINE
  5
78A
330
1F
100
AcDbEntity
  8
Skizziergeometrie_TC_020513_DIN_
  6
DASHED
 62
     7
100
AcDbPolyline
 90
        2
 70
     0
 43
0.35
 10
16.74280395429867
 20
123.9558390389283
 42
0.00000000843899
 10
16.74280395429867
 20
123.9558373871159
 42
0.00000000843899
  0
LWPOLYLINE
  5
78B
330
1F
100
AcDbEntity
  8
Skizziergeometrie_TC_020513_DIN_
  6
DASHED
 62
     7
100
AcDbPolyline
 90
        2
 70
     0
 43
0.35
 10
34.55239505677258
 20
161.7156804060309
 42
0.22399481003563
 10
16.74280395429867
 20
123.9558390389283
 42
0.22399481003563
  0
LWPOLYLINE
  5
78C
330
1F
100
AcDbEntity
  8
Skizziergeometrie_TC_020513_DIN_
  6
DASHED
 62
     7
100
AcDbPolyline
 90
        2
 70
     0
 43
0.35
 10
183.169707137246
 20
117.4010720451899
 42
0.03360142031876
 10
183.610703897731
 20
123.9558373871159
 42
0.03360142031876
  0
LWPOLYLINE
  5
78D
330
1F
100
AcDbEntity
  8
Sichtbare_Kanten_TC_020513_DIN_
  6
Continuous
 62
     7
100
AcDbPolyline
 90
        2
 70
     1
 43
0.5
 10
223.319556064487
 20
87.95583738711647
 42
1.0
 10
265.319556064479
 20
87.95583738711647
 42
1.0
  0
LWPOLYLINE
  5
78E
330
1F
100
AcDbEntity
  8
Sichtbare_Kanten_TC_020513_DIN_
  6
Continuous
 62
     7
100
AcDbPolyline
 90
        2
 70
     1
 43
0.5
 10
224.319556064487
 20
87.95583738711647
 42
1.0
 10
264.319556064479
 20
87.95583738711647
 42
1.0
  0
LWPOLYLINE
  5
78F
330
1F
100
AcDbEntity
  8
Sichtbare_Kanten_TC_020513_DIN_
  6
Continuous
 62
     7
100
AcDbPolyline
 90
        2
 70
     1
 43
0.5
 10
227.319556064483
 20
87.95583738711647
 42
1.0
 10
261.319556064483
 20
87.95583738711647
 42
1.0
  0
LWPOLYLINE
  5
790
330
1F
100
AcDbEntity
  8
Sichtbare_Kanten_TC_020513_DIN_
  6
Continuous
 62
     7
100
AcDbPolyline
 90
        2
 70
     1
 43
0.5
 10
63.92675392601478
 20
123.9558373871159
 42
1.0
 10
67.42675392601478
 20
123.9558373871159
 42
1.0
  0
LWPOLYLINE
  5
791
330
1F
100
AcDbEntity
  8
Sichtbare_Kanten_TC_020513_DIN_
  6
Continuous
 62
     7
100
AcDbPolyline
 90
        2
 70
     1
 43
0.5
 10
132.926753926015
 20
123.9558373871159
 42
1.0
 10
136.426753926015
 20
123.9558373871159
 42
1.0
  0
LWPOLYLINE
  5
792
330
1F
100
AcDbEntity
  8
Sichtbare_Kanten_TC_020513_DIN_
  6
Continuous
 62
     7
100
AcDbPolyline
 90
        2
 70
     1
 43
0.5
 10
57.97675392601479
 20
134.9558373871169
 42
1.0
 10
67.37675392601477
 20
134.9558373871169
 42
1.0
  0
LWPOLYLINE
  5
793
330
1F
100
AcDbEntity
  8
Sichtbare_Kanten_TC_020513_DIN_
  6
Continuous
 62
     7
100
AcDbPolyline
 90
        2
 70
     1
 43
0.5
 10
132.976753926015
 20
134.9558373871169
 42
1.0
 10
142.376753926015
 20
134.9558373871169
 42
1.0
  0
SPLINE
  5
794
330
1F
100
AcDbEntity
  8
Sichtbare_Kanten_TC_020513_DIN_
  6
Continuous
 62
     7
100
AcDbSpline
210
0.0
220
0.0
230
1.0
 70
     8
 71
     3
 72
    19
 73
    15
 74
    13
 42
0.000000001
 43
0.0000000001
 44
0.00000001
 40
0.0
 40
0.0
 40
0.0
 40
0.0
 40
0.3221862205370352
 40
0.6443862618344594
 40
0.8094705328398992
 40
0.9745562229283271
 40
1.1424632808121
 40
1.31037490956713
 40
1.48089593177376
 40
1.651417687593925
 40
1.82403346266841
 40
1.996661195040343
 40
2.257865073018554
 40
2.518894987888111
 40
2.518894987888111
 40
2.518894987888111
 40
2.518894987888111
 10
230.260319361757
 20
134.6566089569279
 30
0.0
 10
230.2965330246348
 20
134.5551746362894
 30
0.0
 10
230.3689619173578
 20
134.352301649254
 30
0.0
 10
230.5183535637914
 20
134.1246112057456
 30
0.0
 10
230.6587072406279
 20
133.9584349671864
 30
0.0
 10
230.7770544116832
 20
133.8416181323725
 30
0.0
 10
230.9057031814759
 20
133.7348840897234
 30
0.0
 10
231.0444831938037
 20
133.6384711027934
 30
0.0
 10
231.1916173467632
 20
133.5536119085392
 30
0.0
 10
231.346667760557
 20
133.4805501061139
 30
0.0
 10
231.5078246986091
 20
133.4200482051437
 30
0.0
 10
231.7023982738982
 20
133.364792414536
 30
0.0
 10
231.9309385482861
 20
133.3220489224743
 30
0.0
 10
232.1051128652986
 20
133.316104185764
 30
0.0
 10
232.192171014334
 20
133.3131328148739
 30
0.0
 11
230.260319361757
 21
134.6566089569279
 31
0.0
 11
230.3805837729532
 21
134.3577102562136
 31
0.0
 11
230.5538669257572
 21
134.0860748074959
 31
0.0
 11
230.6605611385093
 21
133.9601019461217
 31
0.0
 11
230.777957451962
 21
133.8440356248357
 31
0.0
 11
230.9071503320694
 21
133.736788340121
 31
0.0
 11
231.045018141633
 21
133.6409406359356
 31
0.0
 11
231.1927053932016
 21
133.5557004167412
 31
0.0
 11
231.3469344908535
 21
133.4829607792611
 31
0.0
 11
231.5085441820706
 21
133.4223100272536
 31
0.0
 11
231.6745329241296
 21
133.3748961928167
 31
0.0
 11
231.9315990112281
 21
133.3285875194713
 31
0.0
 11
232.192171014334
 21
133.3131328148739
 31
0.0
  0
SPLINE
  5
795
330
1F
100
AcDbEntity
  8
Sichtbare_Kanten_TC_020513_DIN_
  6
Continuous
 62
     7
100
AcDbSpline
210
0.0
220
0.0
230
1.0
 70
     8
 71
     3
 72
    19
 73
    15
 74
    13
 42
0.000000001
 43
0.0000000001
 44
0.00000001
 40
0.0
 40
0.0
 40
0.0
 40
0.0
 40
0.3221862205370088
 40
0.6443862618341781
 40
0.8094705328394011
 40
0.9745562229277894
 40
1.142463280811707
 40
1.310374909566839
 40
1.48089593177361
 40
1.651417687593936
 40
1.824033462668714
 40
1.996661195040914
 40
2.257865073019382
 40
2.518894987889037
 40
2.518894987889037
 40
2.518894987889037
 40
2.518894987889037
 10
230.260319361757
 20
134.0649433904909
 30
0.0
 10
230.2965330246348
 20
133.9635090698524
 30
0.0
 10
230.3689619173577
 20
133.7606360828171
 30
0.0
 10
230.5183535637912
 20
133.5329456393088
 30
0.0
 10
230.6587072406279
 20
133.36676940075
 30
0.0
 10
230.7770544116833
 20
133.2499525659362
 30
0.0
 10
230.905703181476
 20
133.1432185232869
 30
0.0
 10
231.0444831938036
 20
133.0468055363565
 30
0.0
 10
231.1916173467633
 20
132.9619463421023
 30
0.0
 10
231.3466677605572
 20
132.8888845396766
 30
0.0
 10
231.5078246986095
 20
132.8283826387064
 30
0.0
 10
231.7023982738987
 20
132.7731268480983
 30
0.0
 10
231.9309385482868
 20
132.7303833560371
 30
0.0
 10
232.1051128652997
 20
132.7244386193269
 30
0.0
 10
232.192171014335
 20
132.7214672484369
 30
0.0
 11
230.260319361757
 21
134.0649433904909
 31
0.0
 11
230.3805837729532
 21
133.7660446897766
 31
0.0
 11
230.5538669257572
 21
133.4944092410593
 31
0.0
 11
230.6605611385092
 21
133.3684363796852
 31
0.0
 11
230.7779574519621
 21
133.2523700583994
 31
0.0
 11
230.9071503320694
 21
133.1451227736845
 31
0.0
 11
231.0450181416329
 21
133.0492750694987
 31
0.0
 11
231.1927053932016
 21
132.9640348503042
 31
0.0
 11
231.3469344908536
 21
132.8912952128239
 31
0.0
 11
231.5085441820709
 21
132.8306444608162
 31
0.0
 11
231.6745329241302
 21
132.7832306263792
 31
0.0
 11
231.9315990112289
 21
132.736921953034
 31
0.0
 11
232.192171014335
 21
132.7214672484369
 31
0.0
  0
SPLINE
  5
796
330
1F
100
AcDbEntity
  8
Sichtbare_Kanten_TC_020513_DIN_
  6
Continuous
 62
     7
100
AcDbSpline
210
0.0
220
0.0
230
1.0
 70
     8
 71
     3
 72
    19
 73
    15
 74
    13
 42
0.000000001
 43
0.0000000001
 44
0.00000001
 40
0.0
 40
0.0
 40
0.0
 40
0.0
 40
0.3474606674146634
 40
0.694917535029519
 40
0.866569648894767
 40
1.038221191655986
 40
1.207484861390516
 40
1.376745209810085
 40
1.543251855853612
 40
1.709751057159807
 40
1.873443934533172
 40
2.037147336109342
 40
2.278188137688265
 40
2.518986528947345
 40
2.518986528947345
 40
2.518986528947345
 40
2.518986528947345
 10
256.446941114625
 20
133.3131328148739
 30
0.0
 10
256.5628728845377
 20
133.3183897772658
 30
0.0
 10
256.7947351553864
 20
133.3289036592345
 30
0.0
 10
257.0768069615572
 20
133.3999769769467
 30
0.0
 10
257.2925910633913
 20
133.4805439527653
 30
0.0
 10
257.447327811705
 20
133.5535377660103
 30
0.0
 10
257.5948046005633
 20
133.6385839360567
 30
0.0
 10
257.7332327068833
 20
133.7347436629228
 30
0.0
 10
257.8622429947149
 20
133.8417753572911
 30
0.0
 10
257.9801642848031
 20
133.9582826688654
 30
0.0
 10
258.0868280103449
 20
134.0840191340011
 30
0.0
 10
258.1957031806749
 20
134.2392552924503
 30
0.0
 10
258.3008368969462
 20
134.4282777477012
 30
0.0
 10
258.3528161984565
 20
134.5805240835503
 30
0.0
 10
258.378792767204
 20
134.6566089569279
 30
0.0
 11
256.446941114625
 21
133.3131328148739
 31
0.0
 11
256.7933204339151
 21
133.3405241011131
 31
0.0
 11
257.1309814012763
 21
133.4224469096688
 31
0.0
 11
257.2916900204245
 21
133.48275601407
 31
0.0
 11
257.4469411146252
 21
133.5559772545044
 31
0.0
 11
257.5935384225848
 21
133.6405906067496
 31
0.0
 11
257.7325163339985
 21
133.7372043009176
 31
0.0
 11
257.8606259052478
 21
133.8435640732496
 31
0.0
 11
257.979030000863
 21
133.9606215568079
 31
0.0
 11
258.084826306198
 21
134.0855315251804
 31
0.0
 11
258.178991922194
 21
134.2194406019105
 31
0.0
 11
258.2942463399215
 21
134.4311410702265
 31
0.0
 11
258.378792767204
 21
134.6566089569279
 31
0.0
  0
SPLINE
  5
797
330
1F
100
AcDbEntity
  8
Sichtbare_Kanten_TC_020513_DIN_
  6
Continuous
 62
     7
100
AcDbSpline
210
0.0
220
0.0
230
1.0
 70
     8
 71
     3
 72
    19
 73
    15
 74
    13
 42
0.000000001
 43
0.0000000001
 44
0.00000001
 40
0.0
 40
0.0
 40
0.0
 40
0.0
 40
0.3474606674142935
 40
0.6949175350292514
 40
0.8665696488942697
 40
1.038221191655186
 40
1.207484861389625
 40
1.376745209809322
 40
1.54325185585331
 40
1.709751057159927
 40
1.873443934533095
 40
2.037147336108958
 40
2.278188137687662
 40
2.518986528946489
 40
2.518986528946489
 40
2.518986528946489
 40
2.518986528946489
 10
256.4469411146259
 20
132.7214672484369
 30
0.0
 10
256.5628728845385
 20
132.726724210829
 30
0.0
 10
256.7947351553871
 20
132.7372380927979
 30
0.0
 10
257.0768069615576
 20
132.8083114105103
 30
0.0
 10
257.2925910633917
 20
132.8888783863287
 30
0.0
 10
257.4473278117052
 20
132.9618721995734
 30
0.0
 10
257.5948046005634
 20
133.0469183696197
 30
0.0
 10
257.7332327068834
 20
133.143078096486
 30
0.0
 10
257.8622429947154
 20
133.2501097908547
 30
0.0
 10
257.9801642848038
 20
133.366617102429
 30
0.0
 10
258.0868280103456
 20
133.4923535675647
 30
0.0
 10
258.1957031806752
 20
133.6475897260136
 30
0.0
 10
258.3008368969472
 20
133.8366121812642
 30
0.0
 10
258.3528161984568
 20
133.9888585171133
 30
0.0
 10
258.378792767204
 20
134.0649433904909
 30
0.0
 11
256.4469411146259
 21
132.7214672484369
 31
0.0
 11
256.7933204339156
 21
132.7488585346765
 31
0.0
 11
257.1309814012768
 21
132.8307813432324
 31
0.0
 11
257.2916900204249
 21
132.8910904476333
 31
0.0
 11
257.4469411146254
 21
132.9643116880675
 31
0.0
 11
257.5935384225849
 21
133.0489250403126
 31
0.0
 11
257.7325163339987
 21
133.1455387344808
 31
0.0
 11
257.8606259052483
 21
133.2518985068131
 31
0.0
 11
257.9790300008638
 21
133.3689559903716
 31
0.0
 11
258.0848263061986
 21
133.4938659587441
 31
0.0
 11
258.1789919221944
 21
133.6277750354738
 31
0.0
 11
258.2942463399221
 21
133.8394755037895
 31
0.0
 11
258.378792767204
 21
134.0649433904909
 31
0.0
  0
LWPOLYLINE
  5
798
330
1F
100
AcDbEntity
  8
Gewinde_TC_020513_DIN_
  6
Continuous
 62
     7
100
AcDbPolyline
 90
       25
 70
     0
 43
0.25
 10
260.5695560644821
 20
74.39974035647678
 10
260.7654801081379
 20
74.63811125186258
 10
260.9578755568231
 20
74.87927164462378
 10
261.146716184493
 20
75.12318338778788
 10
261.331978149291
 20
75.36982263949687
 10
261.513637609359
 20
75.61915125277808
 10
261.691664762374
 20
75.87113584903048
 10
261.866008348342
 20
76.12570967105198
 10
262.0366337965689
 20
76.38282503512669
 10
262.203510112639
 20
76.64242948916728
 10
262.366605110045
 20
76.90448011782938
 10
262.525887794372
 20
77.16891970065409
 10
262.6813283632961
 20
77.43569578555397
 10
262.8328934382161
 20
77.70477022555637
 10
262.980552024718
 20
77.97608580020238
 10
263.124274320479
 20
78.24959482577609
 10
263.2640269468981
 20
78.52524485019018
 10
263.3997801016529
 20
78.80299295810038
 10
263.531501598235
 20
79.08278192904758
 10
263.659160442229
 20
79.36456884768778
 10
263.7827220629421
 20
79.64828695681858
 10
263.902141160842
 20
79.93383135226539
 10
264.017389125701
 20
80.22114004519749
 10
264.128442115661
 20
80.51015104678439
 10
264.23527509677
 20
80.80081190493868
  0
LWPOLYLINE
  5
799
330
1F
100
AcDbEntity
  8
Gewinde_TC_020513_DIN_
  6
Continuous
 62
     7
100
AcDbPolyline
 90
       25
 70
     0
 43
0.25
 10
228.069556064483
 20
101.5119334640819
 10
227.873632020827
 20
101.2735625686959
 10
227.681236572142
 20
101.0324045601209
 10
227.4923959444719
 20
100.7884904327709
 10
227.307133979674
 20
100.5418535652479
 10
227.125474519606
 20
100.2925225677809
 10
226.9474473665911
 20
100.0405403557139
 10
226.7731037806231
 20
99.78596414950688
 10
226.602478332396
 20
99.52884878543188
 10
226.435602016326
 20
99.26924194720588
 10
226.27250701892
 20
99.00719608691487
 10
226.113224334594
 20
98.74275650408988
 10
225.95778376567
 20
98.47597803500489
 10
225.806218690749
 20
98.20690359500188
 10
225.6585601042469
 20
97.93558802035588
 10
225.5148378084861
 20
97.66208137896788
 10
225.375085182067
 20
97.38642897036888
 10
225.239332027312
 20
97.10868324664388
 10
225.10761053073
 20
96.82889189151088
 10
224.9799516867359
 20
96.54710735705687
 10
224.856390066024
 20
96.26338924792589
 10
224.736970968124
 20
95.97784485247888
 10
224.621723003265
 20
95.69053615954688
 10
224.510670013305
 20
95.40152277377388
 10
224.4038370321949
 20
95.11085953143387
  0
LWPOLYLINE
  5
79A
330
1F
100
AcDbEntity
  8
Gewinde_TC_020513_DIN_
  6
Continuous
 62
     7
100
AcDbPolyline
 90
       25
 70
     0
 43
0.25
 10
264.23527509677
 20
95.11085953143387
 10
264.128442115661
 20
95.40152277377388
 10
264.017389125701
 20
95.69053615954688
 10
263.902141160842
 20
95.97784485247888
 10
263.7827220629421
 20
96.26338924792589
 10
263.659160442229
 20
96.54710735705687
 10
263.531501598235
 20
96.82889189151088
 10
263.3997801016529
 20
97.10868324664388
 10
263.2640269468981
 20
97.38642897036888
 10
263.124274320479
 20
97.66208137896788
 10
262.980552024718
 20
97.93558802035588
 10
262.8328934382161
 20
98.20690359500188
 10
262.6813283632961
 20
98.47597803500489
 10
262.525887794372
 20
98.74275650408988
 10
262.366605110045
 20
99.00719608691487
 10
262.203510112639
 20
99.26924194720588
 10
262.0366337965689
 20
99.52884878543188
 10
261.866008348342
 20
99.78596414950688
 10
261.691664762374
 20
100.0405403557139
 10
261.513637609359
 20
100.2925225677809
 10
261.331978149291
 20
100.5418535652479
 10
261.146716184493
 20
100.7884904327709
 10
260.9578755568231
 20
101.0324045601209
 10
260.7654801081379
 20
101.2735625686959
 10
260.5695560644821
 20
101.5119334640819
  0
LWPOLYLINE
  5
79B
330
1F
100
AcDbEntity
  8
Sichtbare_Kanten_TC_020513_DIN_
  6
Continuous
 62
     7
100
AcDbPolyline
 90
       25
 70
     0
 43
0.5
 10
221.940565414305
 20
152.5378176155409
 10
221.942391700621
 20
152.5287338676769
 10
221.9445279310891
 20
152.5187548580489
 10
221.947017021055
 20
152.5079997959449
 10
221.949894733305
 20
152.4965926590279
 10
221.953208751554
 20
152.4846538486799
 10
221.956994838591
 20
152.4723049583749
 10
221.9612935255719
 20
152.4596687736829
 10
221.966147727842
 20
152.4468656959849
 10
221.97159797656
 20
152.4340185108499
 10
221.9776848028849
 20
152.4212488117529
 10
221.984446353788
 20
152.4086781921699
 10
221.9919279288
 20
152.3964282455759
 10
222.000165290708
 20
152.3846205654459
 10
222.009201354856
 20
152.3733779373489
 10
222.0190075110151
 20
152.3628934803319
 10
222.0294383238501
 20
152.3534163418129
 10
222.040491409178
 20
152.3449775162059
 10
222.052176303739
 20
152.3375972690899
 10
222.064504928465
 20
152.3312970581369
 10
222.077458209867
 20
152.3261066856699
 10
222.090995616789
 20
152.3220559540109
 10
222.105107612486
 20
152.3191532078099
 10
222.119784660215
 20
152.3174067917189
 10
222.135026759977
 20
152.3168226661999
  0
LWPOLYLINE
  5
79C
330
1F
100
AcDbEntity
  8
Sichtbare_Kanten_TC_020513_DIN_
  6
Continuous
 62
     7
100
AcDbPolyline
 90
       25
 70
     0
 43
0.5
 10
220.9504965017981
 20
152.3168226661999
 10
220.9210780333229
 20
152.3173614921889
 10
220.892656154508
 20
152.3189815464339
 10
220.865240402097
 20
152.3216875973059
 10
220.838840312833
 20
152.3254844131789
 10
220.81346542346
 20
152.3303743782359
 10
220.789127654905
 20
152.3363634529429
 10
220.765834159727
 20
152.3434552135779
 10
220.743596858854
 20
152.3516544285139
 10
220.722427673216
 20
152.3609646740279
 10
220.702343292112
 20
152.3713859501199
 10
220.683756179685
 20
152.3826679172829
 10
220.666807002897
 20
152.3945816936809
 10
220.651409931059
 20
152.4069913807229
 10
220.637488670225
 20
152.4197634640059
 10
220.624962158079
 20
152.4327632370309
 10
220.613746948118
 20
152.4458559933019
 10
220.603764362211
 20
152.4589082184149
 10
220.5949309538549
 20
152.4717840137799
 10
220.58716804492
 20
152.4843498649909
 10
220.580394573087
 20
152.4964698734599
 10
220.574529476042
 20
152.5080117168739
 10
220.569491691465
 20
152.5188394966439
 10
220.565200157041
 20
152.5288196983649
 10
220.561573810453
 20
152.5378176155409
  0
LWPOLYLINE
  5
79D
330
1F
100
AcDbEntity
  8
Sichtbare_Kanten_TC_020513_DIN_
  6
Continuous
 62
     7
100
AcDbPolyline
 90
       25
 70
     0
 43
0.5
 10
222.632956809873
 20
152.3168226661999
 10
222.660427398557
 20
152.3158070030529
 10
222.687990970487
 20
152.3127838554699
 10
222.7155903052041
 20
152.3077925625159
 10
222.743168182249
 20
152.3008712711649
 10
222.770667381162
 20
152.2920593204809
 10
222.798023528928
 20
152.2813996258099
 10
222.824969596738
 20
152.2690352382979
 10
222.85137683856
 20
152.2550841751419
 10
222.877209491605
 20
152.2396286907509
 10
222.902429408903
 20
152.2227510395369
 10
222.926998443479
 20
152.2045358600929
 10
222.950883216734
 20
152.1850654068309
 10
222.973954982633
 20
152.1645041885689
 10
222.995667762632
 20
152.1434506359419
 10
223.015945262785
 20
152.1221991958929
 10
223.034789867277
 20
152.1009763660749
 10
223.052208728666
 20
152.0800110283209
 10
223.068199462766
 20
152.0595320644699
 10
223.082771606321
 20
152.0397659721689
 10
223.095927543516
 20
152.0209404411629
 10
223.107672042722
 20
152.0032843532879
 10
223.118005103941
 20
151.9870253982859
 10
223.126933879728
 20
151.9723912659009
 10
223.13446075427
 20
151.9596108379679
  0
LWPOLYLINE
  5
79E
330
1F
100
AcDbEntity
  8
Sichtbare_Kanten_TC_020513_DIN_
  6
Continuous
 62
     7
100
AcDbPolyline
 90
       25
 70
     0
 43
0.5
 10
222.9493668745701
 20
151.9596108379679
 10
222.93595344531
 20
151.9709726753549
 10
222.919318981046
 20
151.9845851841289
 10
222.899494476194
 20
152.0001741829229
 10
222.8765085409819
 20
152.0174714508369
 10
222.850394554013
 20
152.0362051906899
 10
222.82117874133
 20
152.0561047973949
 10
222.788892097348
 20
152.0769008579569
 10
222.753565616483
 20
152.0983203831029
 10
222.715227908963
 20
152.1200939598399
 10
222.6739099692051
 20
152.1419509830789
 10
222.629640407437
 20
152.1636208477339
 10
222.582450218076
 20
152.1848329487159
 10
222.532370395536
 20
152.2053154888469
 10
222.479574985379
 20
152.2247573318799
 10
222.4259641836831
 20
152.2424444141699
 10
222.372184104795
 20
152.2582086506209
 10
222.3183229635901
 20
152.2720631542519
 10
222.264468974942
 20
152.2840246143659
 10
222.210707969541
 20
152.2941073360759
 10
222.157128162259
 20
152.3023232403119
 10
222.103815383786
 20
152.3086890163739
 10
222.050857848996
 20
152.3132177772839
 10
221.998343772763
 20
152.3159238281569
 10
221.946358985776
 20
152.3168226661999
  0
LWPOLYLINE
  5
79F
330
1F
100
AcDbEntity
  8
Sichtbare_Kanten_TC_020513_DIN_
  6
Continuous
 62
     7
100
AcDbPolyline
 90
       25
 70
     0
 43
0.5
 10
223.13446075427
 20
151.9596108379679
 10
223.1421330641459
 20
151.9463356914839
 10
223.149807758207
 20
151.9330605449989
 10
223.1574872206401
 20
151.9197865906079
 10
223.16517383563
 20
151.9065126362159
 10
223.172862834806
 20
151.8932398739179
 10
223.1805566023539
 20
151.8799659195259
 10
223.188255138273
 20
151.8666919651349
 10
223.195958442564
 20
151.8534192028359
 10
223.20366413104
 20
151.8401452484449
 10
223.211374587888
 20
151.8268712940529
 10
223.219087428922
 20
151.8135961475689
 10
223.2268050383281
 20
151.8003210010849
 10
223.234525031919
 20
151.7870470466929
 10
223.242247409696
 20
151.7737719002089
 10
223.249972171659
 20
151.7604979458169
 10
223.257696933622
 20
151.7472239914259
 10
223.265426463956
 20
151.7339512291269
 10
223.273155994291
 20
151.7206772747359
 10
223.280885524625
 20
151.7074033203439
 10
223.2886174391459
 20
151.6941305580459
 10
223.296351737852
 20
151.6808566036539
 10
223.304086036558
 20
151.6675826492619
 10
223.311820335264
 20
151.6543075027779
 10
223.319557018155
 20
151.6410323562939
  0
LWPOLYLINE
  5
7A0
330
1F
100
AcDbEntity
  8
Sichtbare_Kanten_TC_020513_DIN_
  6
Continuous
 62
     7
100
AcDbPolyline
 90
       25
 70
     0
 43
0.5
 10
223.319557018155
 20
151.6410323562939
 10
223.304086036557
 20
151.6543075027779
 10
223.288615054959
 20
151.6675826492619
 10
223.273146457547
 20
151.6808566036539
 10
223.257680244321
 20
151.6941305580459
 10
223.24221641528
 20
151.7074033203439
 10
223.226754970426
 20
151.7206772747359
 10
223.211295909757
 20
151.7339512291269
 10
223.195839233274
 20
151.7472239914259
 10
223.180387325162
 20
151.7604979458169
 10
223.164937801236
 20
151.7737719002089
 10
223.149493045682
 20
151.7870470466929
 10
223.1340554426851
 20
151.8003210010849
 10
223.118620223874
 20
151.8135961475689
 10
223.103192157621
 20
151.8268712940529
 10
223.08777362811
 20
151.8401452484449
 10
223.0723598669709
 20
151.8534192028359
 10
223.056955642575
 20
151.8666919651349
 10
223.041558570737
 20
151.8799659195259
 10
223.0261710356421
 20
151.8932398739179
 10
223.010790653104
 20
151.9065126362159
 10
222.995419807309
 20
151.9197865906079
 10
222.980058498258
 20
151.9330605449989
 10
222.964709110135
 20
151.9463356914839
 10
222.9493668745701
 20
151.9596108379679
  0
LWPOLYLINE
  5
7A1
330
1F
100
AcDbEntity
  8
Sichtbare_Kanten_TC_020513_DIN_
  6
Continuous
 62
     7
100
AcDbPolyline
 90
       25
 70
     0
 43
0.5
 10
221.919555969114
 20
152.7520784321149
 10
221.9195917319011
 20
152.7431508484199
 10
221.919701404448
 20
152.7342220726329
 10
221.919884986753
 20
152.7252944889389
 10
221.920140094633
 20
152.7163669052439
 10
221.920469112272
 20
152.7074405136419
 10
221.9208720396711
 20
152.6985141220409
 10
221.921346492643
 20
152.6895865383459
 10
221.9218948553749
 20
152.6806601467449
 10
221.922517127867
 20
152.6717325630499
 10
221.923210925932
 20
152.6628049793559
 10
221.923978633757
 20
152.6538762035689
 10
221.924817867155
 20
152.6449486198739
 10
221.925731010313
 20
152.6360198440869
 10
221.9267156790451
 20
152.6270910682989
 10
221.927774257536
 20
152.6181634846049
 10
221.928906745787
 20
152.6092370930029
 10
221.930110759611
 20
152.6003095093089
 10
221.931386299009
 20
152.5913831177069
 10
221.932735748167
 20
152.5824555340129
 10
221.934156722898
 20
152.5735291424109
 10
221.935649223203
 20
152.5646015587169
 10
221.937215633268
 20
152.5556739750219
 10
221.938853568907
 20
152.5467463913279
 10
221.940565414305
 20
152.5378176155409
  0
LWPOLYLINE
  5
7A2
330
1F
100
AcDbEntity
  8
Sichtbare_Kanten_TC_020513_DIN_
  6
Continuous
 62
     7
100
AcDbPolyline
 90
       25
 70
     0
 43
0.5
 10
220.561573810453
 20
152.5378176155409
 10
220.558152503843
 20
152.5467463913279
 10
220.55487424838
 20
152.5556739750219
 10
220.5517438124369
 20
152.5646015587169
 10
220.548756427641
 20
152.5735291424109
 10
220.545914478178
 20
152.5824555340129
 10
220.5432155798629
 20
152.5913831177069
 10
220.540664501066
 20
152.6003095093089
 10
220.5382564734169
 20
152.6092370930029
 10
220.5359938811019
 20
152.6181634846049
 10
220.533876724119
 20
152.6270910682989
 10
220.53190500247
 20
152.6360198440869
 10
220.53008110034
 20
152.6449486198739
 10
220.528400249357
 20
152.6538762035689
 10
220.526864833708
 20
152.6628049793559
 10
220.525477237577
 20
152.6717325630499
 10
220.52423507678
 20
152.6806601467449
 10
220.523138351316
 20
152.6895865383459
 10
220.5221894453711
 20
152.6985141220409
 10
220.521383590574
 20
152.7074405136419
 10
220.5207255552961
 20
152.7163669052439
 10
220.520215339537
 20
152.7252944889389
 10
220.519848174925
 20
152.7342220726329
 10
220.519628829832
 20
152.7431508484199
 10
220.519554920073
 20
152.7520784321149
  0
LWPOLYLINE
  5
7A3
330
1F
100
AcDbEntity
  8
Sichtbare_Kanten_TC_020513_DIN_
  6
Continuous
 62
     7
100
AcDbPolyline
 90
       25
 70
     0
 43
0.5
 10
228.39607388484
 20
140.7566454592069
 10
228.40590149867
 20
140.7311752024009
 10
228.415725536222
 20
140.7057234230359
 10
228.425547189588
 20
140.6802972736679
 10
228.435365266675
 20
140.6549021187149
 10
228.44518215167
 20
140.6295451107339
 10
228.454997844571
 20
140.6042322101909
 10
228.464814729566
 20
140.5789693775489
 10
228.4746316145601
 20
140.5537631693199
 10
228.484449691648
 20
140.5286201420149
 10
228.494271345014
 20
140.5035456600509
 10
228.504095382566
 20
140.4785474720319
 10
228.513922996396
 20
140.4536303463299
 10
228.52375180232
 20
140.4288133564309
 10
228.533575839872
 20
140.4041155758219
 10
228.543397493238
 20
140.3795423689199
 10
228.5532155703251
 20
140.3550996961909
 10
228.56303245532
 20
140.3307935180979
 10
228.5728481482209
 20
140.3066303911529
 10
228.582665033216
 20
140.2826156797729
 10
228.59248191821
 20
140.2587553444219
 10
228.602299995298
 20
140.2350559416129
 10
228.612121648664
 20
140.2115228357629
 10
228.621945686216
 20
140.1881619873359
 10
228.631773300046
 20
140.1649799528439
  0
LWPOLYLINE
  5
7A4
330
1F
100
AcDbEntity
  8
Sichtbare_Kanten_TC_020513_DIN_
  6
Continuous
 62
     7
100
AcDbPolyline
 90
       25
 70
     0
 43
0.5
 10
228.631773300046
 20
139.5733144464809
 10
228.621945686216
 20
139.6196788134889
 10
228.612121648664
 20
139.6663999142959
 10
228.602299995298
 20
139.7134661259969
 10
228.592481918211
 20
139.7608652296379
 10
228.582665033216
 20
139.8085856023149
 10
228.5728481482209
 20
139.8566153230979
 10
228.56303245532
 20
139.9049418750119
 10
228.5532155703251
 20
139.9535539331749
 10
228.543397493238
 20
140.0024392786339
 10
228.533575839872
 20
140.0515856924369
 10
228.52375180232
 20
140.1009812536559
 10
228.513922996397
 20
140.1506146374069
 10
228.504095382566
 20
140.2004488888099
 10
228.494271345014
 20
140.2504458608939
 10
228.484449691648
 20
140.3005942287759
 10
228.474631614561
 20
140.3508808794339
 10
228.464814729566
 20
140.4012926998449
 10
228.454997844572
 20
140.4518183651289
 10
228.44518215167
 20
140.5024447622619
 10
228.4353652666761
 20
140.5531587782219
 10
228.425547189588
 20
140.6039484920819
 10
228.415725536222
 20
140.6548013868649
 10
228.40590149867
 20
140.7057043495489
 10
228.39607388484
 20
140.7566454592069
  0
LWPOLYLINE
  5
7A5
330
1F
100
AcDbEntity
  8
Sichtbare_Kanten_TC_020513_DIN_
  6
Continuous
 62
     7
100
AcDbPolyline
 90
       25
 70
     0
 43
0.5
 10
229.897343225354
 20
152.1334597053839
 10
229.869686670178
 20
152.1316250744179
 10
229.842084951276
 20
152.1261414470989
 10
229.8145213793461
 20
152.1170362415629
 10
229.786976880902
 20
152.1043404522259
 10
229.759434766644
 20
152.0880826893169
 10
229.7318759630861
 20
152.0682903709729
 10
229.704282588834
 20
152.0449944916089
 10
229.676636762494
 20
152.0182236614539
 10
229.648970670575
 20
151.9880649032909
 10
229.621361799115
 20
151.9546863022169
 10
229.5937922667209
 20
151.9181748810129
 10
229.566246576184
 20
151.8786105099039
 10
229.5387044619259
 20
151.8360766353919
 10
229.511149234647
 20
151.7906555118879
 10
229.483563012952
 20
151.7424282017069
 10
229.455927915448
 20
151.6914781513529
 10
229.428255863065
 20
151.6379484119729
 10
229.40063268649
 20
151.5821453514419
 10
229.3730476568879
 20
151.5242060604409
 10
229.345484084958
 20
151.4642509403549
 10
229.317924089307
 20
151.4024015846569
 10
229.290348596448
 20
151.3387760105449
 10
229.262740917081
 20
151.2734970035869
 10
229.235081977719
 20
151.2066837730719
  0
LWPOLYLINE
  5
7A6
330
1F
100
AcDbEntity
  8
Sichtbare_Kanten_TC_020513_DIN_
  6
Continuous
 62
     7
100
AcDbPolyline
 90
       25
 70
     0
 43
0.5
 10
229.235081977719
 20
151.2066837730719
 10
229.229239530439
 20
151.1927923145609
 10
229.22230274188
 20
151.1771449032149
 10
229.214165515775
 20
151.1598369064649
 10
229.204721755857
 20
151.1409684601149
 10
229.19386655795
 20
151.1206373157819
 10
229.1814938257879
 20
151.0989412250839
 10
229.167497463101
 20
151.0759803238229
 10
229.15177375781
 20
151.0518511715249
 10
229.134215421552
 20
151.0266515198069
 10
229.11471635806
 20
151.0004826965649
 10
229.093172855252
 20
150.9734400692299
 10
229.069958038205
 20
150.9461935940109
 10
229.046387977475
 20
150.9203061046919
 10
229.0227225493139
 20
150.8958693924269
 10
228.9991548727691
 20
150.8728929939589
 10
228.975880451078
 20
150.8513864460309
 10
228.953094787473
 20
150.8313616695719
 10
228.930992193097
 20
150.8128258171399
 10
228.909769363278
 20
150.7957896175699
 10
228.889619417066
 20
150.7802637996989
 10
228.8707378576941
 20
150.7662579002699
 10
228.853320188398
 20
150.7537826481179
 10
228.837560720319
 20
150.7428463878949
 10
228.8236537646
 20
150.7334598484349
  0
LWPOLYLINE
  5
7A7
330
1F
100
AcDbEntity
  8
Sichtbare_Kanten_TC_020513_DIN_
  6
Continuous
 62
     7
100
AcDbPolyline
 90
       25
 70
     0
 43
0.5
 10
229.23508197772
 20
151.6799065056159
 10
229.262712306852
 20
151.8133970680549
 10
229.290291375989
 20
151.9438215675669
 10
229.3178358744329
 20
152.0709403934799
 10
229.345364875669
 20
152.1945139351209
 10
229.372896261091
 20
152.3143013897259
 10
229.400446719999
 20
152.4300655308089
 10
229.428035325879
 20
152.5415643635109
 10
229.455676383848
 20
152.6485451641399
 10
229.483293599958
 20
152.7504261913609
 10
229.510861940259
 20
152.8468760433509
 10
229.5384016703309
 20
152.9377290191969
 10
229.565930671567
 20
153.0228194179849
 10
229.593464441175
 20
153.1019815388039
 10
229.62102205264
 20
153.1750520649269
 10
229.64862257945
 20
153.2418652954419
 10
229.676270789975
 20
153.3022316875769
 10
229.703905887479
 20
153.3558448734599
 10
229.731527871961
 20
153.4025784912429
 10
229.759157009
 20
153.4423419418649
 10
229.7868076037111
 20
153.4750446262679
 10
229.814447469586
 20
153.5005554142309
 10
229.842070646161
 20
153.5188158932049
 10
229.8696973990139
 20
153.5297938766799
 10
229.897343225354
 20
153.5334595623329
  0
LWPOLYLINE
  5
7A8
330
1F
100
AcDbEntity
  8
Sichtbare_Kanten_TC_020513_DIN_
  6
Continuous
 62
     7
100
AcDbPolyline
 90
       25
 70
     0
 43
0.5
 10
228.8236537646
 20
150.7334598484349
 10
228.833860463972
 20
150.7472166004499
 10
228.845384425993
 20
150.7630809727029
 10
228.858118362302
 20
150.7810231628729
 10
228.871952600355
 20
150.8010205211959
 10
228.886777467603
 20
150.8230444374399
 10
228.902485675687
 20
150.8470686855629
 10
228.9189651678749
 20
150.8730670395209
 10
228.936109847898
 20
150.9010144653639
 10
228.953807659025
 20
150.9308823528609
 10
228.971951312894
 20
150.9626468601539
 10
228.990429944868
 20
150.9962793770149
 10
229.0091362665841
 20
151.0317536773999
 10
229.027960605497
 20
151.0690447273569
 10
229.04679328906
 20
151.1081251087499
 10
229.065524644727
 20
151.1489697876289
 10
229.084046192045
 20
151.1915501537639
 10
229.1026929091159
 20
151.2368580284439
 10
229.122027463789
 20
151.2866743984539
 10
229.141749448652
 20
151.3410147610029
 10
229.1615429590889
 20
151.3998612346969
 10
229.181088514203
 20
151.4631935539559
 10
229.200072593565
 20
151.5309914532019
 10
229.2181757162761
 20
151.6032346668559
 10
229.23508197772
 20
151.6799065056159
  0
LWPOLYLINE
  5
7A9
330
1F
100
AcDbEntity
  8
Sichtbare_Kanten_TC_020513_DIN_
  6
Continuous
 62
     7
100
AcDbPolyline
 90
       25
 70
     0
 43
0.5
 10
259.404030151243
 20
151.6799065056159
 10
259.420936412687
 20
151.6032346668559
 10
259.4390395353979
 20
151.5309902611099
 10
259.458023614759
 20
151.4631935539559
 10
259.4775691698741
 20
151.3998612346969
 10
259.497362680311
 20
151.3410147610029
 10
259.5170846651739
 20
151.2866743984539
 10
259.5364192198459
 20
151.2368580284439
 10
259.5550659369179
 20
151.1915501537639
 10
259.573587484235
 20
151.1489697876289
 10
259.5923188399021
 20
151.1081251087499
 10
259.611151523466
 20
151.0690447273569
 10
259.629975862379
 20
151.0317536773999
 10
259.648682184095
 20
150.9962793770149
 10
259.6671608160681
 20
150.9626468601539
 10
259.6853044699379
 20
150.9308823528609
 10
259.703002281064
 20
150.9010144653639
 10
259.7201469610881
 20
150.8730670395209
 10
259.736626453275
 20
150.8470686855629
 10
259.752334661359
 20
150.8230444374399
 10
259.767159528608
 20
150.8010205211959
 10
259.78099376666
 20
150.7810231628729
 10
259.7937277029699
 20
150.7630809727029
 10
259.805251664991
 20
150.7472166004499
 10
259.8154583643619
 20
150.7334598484349
  0
LWPOLYLINE
  5
7AA
330
1F
100
AcDbEntity
  8
Sichtbare_Kanten_TC_020513_DIN_
  6
Continuous
 62
     7
100
AcDbPolyline
 90
       25
 70
     0
 43
0.5
 10
259.8154583643619
 20
150.7334598484349
 10
259.8015514086429
 20
150.7428463878949
 10
259.785791940564
 20
150.7537826481179
 10
259.768374271268
 20
150.7662579002699
 10
259.749492711896
 20
150.7802637996989
 10
259.729342765683
 20
150.7957896175699
 10
259.7081199358651
 20
150.8128258171399
 10
259.686017341489
 20
150.8313616695719
 10
259.663231677884
 20
150.8513864460309
 10
259.639957256192
 20
150.8728929939589
 10
259.6163895796479
 20
150.8958693924269
 10
259.592724151487
 20
150.9203061046919
 10
259.569154090757
 20
150.9461935940109
 10
259.545939273709
 20
150.9734400692299
 10
259.5243957709021
 20
151.0004826965649
 10
259.50489670741
 20
151.0266515198069
 10
259.4873383711521
 20
151.0518511715249
 10
259.47161466586
 20
151.0759803238229
 10
259.4576183031739
 20
151.0989412250839
 10
259.4452455710119
 20
151.1206373157819
 10
259.434390373105
 20
151.1409684601149
 10
259.424946613187
 20
151.1598369064649
 10
259.416809387082
 20
151.1771449032149
 10
259.4098725985231
 20
151.1927923145609
 10
259.404030151242
 20
151.2066837730719
  0
LWPOLYLINE
  5
7AB
330
1F
100
AcDbEntity
  8
Sichtbare_Kanten_TC_020513_DIN_
  6
Continuous
 62
     7
100
AcDbPolyline
 90
       25
 70
     0
 43
0.5
 10
258.741768903607
 20
153.5334595623329
 10
258.769399232739
 20
153.5297974529579
 10
258.796978301877
 20
153.5188492718059
 10
258.82452280032
 20
153.5006674709639
 10
258.8520518015561
 20
153.4753092708899
 10
258.879583186978
 20
153.4428295078589
 10
258.907133645886
 20
153.4032818260509
 10
258.934722251767
 20
153.3567246380169
 10
258.962363309735
 20
153.3032175484019
 10
258.989980525845
 20
153.2430383148509
 10
259.01755005824
 20
153.1764217796639
 10
259.045089788312
 20
153.1035241070109
 10
259.072617597455
 20
153.0245026531539
 10
259.100151367063
 20
152.9395123901679
 10
259.127708978528
 20
152.8487130585029
 10
259.155309505338
 20
152.7522596302349
 10
259.1829577158641
 20
152.6503523769699
 10
259.210592813367
 20
152.5434800567939
 10
259.238214797849
 20
152.4319204273539
 10
259.265843934888
 20
152.3158940258339
 10
259.2934945296
 20
152.1956309261639
 10
259.321134395475
 20
152.0715888920149
 10
259.348758764142
 20
151.9441183986979
 10
259.3763843249029
 20
151.8134733620009
 10
259.404030151243
 20
151.6799065056159
  0
LWPOLYLINE
  5
7AC
330
1F
100
AcDbEntity
  8
Sichtbare_Kanten_TC_020513_DIN_
  6
Continuous
 62
     7
100
AcDbPolyline
 90
       25
 70
     0
 43
0.5
 10
259.404030151242
 20
151.2066837730719
 10
259.376373596067
 20
151.2734910431219
 10
259.3487730692569
 20
151.3387545528729
 10
259.321208305234
 20
151.4023539009409
 10
259.293664998883
 20
151.4641698780379
 10
259.2661216925329
 20
151.5240832748729
 10
259.238562888974
 20
151.5819748821569
 10
259.210969514722
 20
151.6377254906019
 10
259.1833236883821
 20
151.6912146988229
 10
259.155657596463
 20
151.7422326984719
 10
259.1280487250029
 20
151.7905100765539
 10
259.100479192609
 20
151.8359621944739
 10
259.072933502072
 20
151.8785103741009
 10
259.045391387814
 20
151.9180747452099
 10
259.017836160535
 20
151.9545778217629
 10
258.99024993884
 20
151.9879385414439
 10
258.962614841336
 20
152.0180794182139
 10
258.934942788953
 20
152.0448919716199
 10
258.9073196123781
 20
152.0682259979559
 10
258.879734582776
 20
152.0880445423439
 10
258.8521710108461
 20
152.1043213787399
 10
258.8246110151951
 20
152.1170290890059
 10
258.7970355223359
 20
152.1261390629129
 10
258.769427842969
 20
152.1316250744179
 10
258.741768903607
 20
152.1334597053839
  0
LWPOLYLINE
  5
7AD
330
1F
100
AcDbEntity
  8
Sichtbare_Kanten_TC_020513_DIN_
  6
Continuous
 62
     7
100
AcDbPolyline
 90
       25
 70
     0
 43
0.5
 10
266.504085368986
 20
152.3168226661999
 10
266.518352336759
 20
152.3173316898659
 10
266.53209955203
 20
152.3188528004009
 10
266.545327014799
 20
152.3213752689679
 10
266.558034725065
 20
152.3248871746379
 10
266.570220298643
 20
152.3293801727609
 10
266.581886119718
 20
152.3348435345009
 10
266.593032188291
 20
152.3412641468359
 10
266.603658504362
 20
152.3486348572089
 10
266.613762683744
 20
152.3569425525979
 10
266.623335189695
 20
152.3661657753309
 10
266.632345027799
 20
152.3762496891339
 10
266.640806503172
 20
152.3871668758709
 10
266.6487315367409
 20
152.3988934936839
 10
266.656134433622
 20
152.4114092769939
 10
266.66302949893
 20
152.4246891918499
 10
266.669397659178
 20
152.4386176052409
 10
266.6750720213601
 20
152.4526544990859
 10
266.6800764273361
 20
152.4665674152689
 10
266.6844537924479
 20
152.4801846924139
 10
266.688249416227
 20
152.4933346691449
 10
266.691510982389
 20
152.5058456840829
 10
266.6942861746501
 20
152.5175448837599
 10
266.696615524168
 20
152.5282594147039
 10
266.6985467146591
 20
152.5378176155409
  0
LWPOLYLINE
  5
7AE
330
1F
100
AcDbEntity
  8
Sichtbare_Kanten_TC_020513_DIN_
  6
Continuous
 62
     7
100
AcDbPolyline
 90
       25
 70
     0
 43
0.5
 10
268.0775383185099
 20
152.5378176155409
 10
268.0739000509931
 20
152.5287875118569
 10
268.0695894430829
 20
152.5187739315349
 10
268.0645302008339
 20
152.5079103889779
 10
268.05864126193
 20
152.4963351669629
 10
268.051839179868
 20
152.4841793957069
 10
268.044042892332
 20
152.4715825500799
 10
268.0351737211889
 20
152.4586757603009
 10
268.025150604124
 20
152.4455973091439
 10
268.013890094633
 20
152.4324819031079
 10
268.001311130399
 20
152.4194630565959
 10
267.987335033292
 20
152.4066778602919
 10
267.9718807409951
 20
152.3942598285989
 10
267.954864807005
 20
152.3823460522009
 10
267.936206169004
 20
152.3710712375959
 10
267.916140861387
 20
152.3607047977759
 10
267.895007438535
 20
152.3514481964429
 10
267.872813053007
 20
152.3432978573159
 10
267.8495696257299
 20
152.3362466278389
 10
267.825284309263
 20
152.3302933159189
 10
267.79997140872
 20
152.3254319610909
 10
267.773638076658
 20
152.3216589870769
 10
267.746293849821
 20
152.3189696255049
 10
267.7179506491369
 20
152.3173591080029
 10
267.688615627164
 20
152.3168226661999
  0
LWPOLYLINE
  5
7AF
330
1F
100
AcDbEntity
  8
Sichtbare_Kanten_TC_020513_DIN_
  6
Continuous
 62
     7
100
AcDbPolyline
 90
       25
 70
     0
 43
0.5
 10
266.6985467146591
 20
152.5378176155409
 10
266.700258560057
 20
152.5467463913279
 10
266.701896495695
 20
152.5556739750219
 10
266.7034629057599
 20
152.5646015587169
 10
266.704955406065
 20
152.5735291424109
 10
266.706376380796
 20
152.5824555340129
 10
266.707725829954
 20
152.5913831177069
 10
266.709001369352
 20
152.6003095093089
 10
266.7102053831769
 20
152.6092370930029
 10
266.711337871427
 20
152.6181634846049
 10
266.712396449919
 20
152.6270910682989
 10
266.71338111865
 20
152.6360198440869
 10
266.7142942618081
 20
152.6449486198739
 10
266.7151334952069
 20
152.6538762035689
 10
266.715901203031
 20
152.6628049793559
 10
266.7165950010971
 20
152.6717325630499
 10
266.7172172735881
 20
152.6806601467449
 10
266.71776563632
 20
152.6895865383459
 10
266.718240089293
 20
152.6985141220409
 10
266.718643016691
 20
152.7074405136419
 10
266.71897203433
 20
152.7163669052439
 10
266.71922714221
 20
152.7252944889389
 10
266.719410724516
 20
152.7342220726329
 10
266.719520397062
 20
152.7431508484199
 10
266.7195561598491
 20
152.7520784321149
  0
LWPOLYLINE
  5
7B0
330
1F
100
AcDbEntity
  8
Sichtbare_Kanten_TC_020513_DIN_
  6
Continuous
 62
     7
100
AcDbPolyline
 90
       25
 70
     0
 43
0.5
 10
268.119557208891
 20
152.7520784321149
 10
268.1194832991311
 20
152.7431508484199
 10
268.119263954039
 20
152.7342220726329
 10
268.1188967894269
 20
152.7252944889389
 10
268.118386573668
 20
152.7163669052439
 10
268.117728538389
 20
152.7074405136419
 10
268.116922683592
 20
152.6985141220409
 10
268.115973777647
 20
152.6895865383459
 10
268.114877052183
 20
152.6806601467449
 10
268.1136348913859
 20
152.6717325630499
 10
268.112247295255
 20
152.6628049793559
 10
268.110711879606
 20
152.6538762035689
 10
268.1090310286239
 20
152.6449486198739
 10
268.107207126493
 20
152.6360198440869
 10
268.1052354048439
 20
152.6270910682989
 10
268.103118247862
 20
152.6181634846049
 10
268.1008556555461
 20
152.6092370930029
 10
268.0984476278969
 20
152.6003095093089
 10
268.095896549101
 20
152.5913831177069
 10
268.093197650785
 20
152.5824555340129
 10
268.090355701322
 20
152.5735291424109
 10
268.0873683165261
 20
152.5646015587169
 10
268.0842378805829
 20
152.5556739750219
 10
268.08095962512
 20
152.5467463913279
 10
268.0775383185099
 20
152.5378176155409
  0
LWPOLYLINE
  5
7B1
330
1F
100
AcDbEntity
  8
Sichtbare_Kanten_TC_020513_DIN_
  6
Continuous
 62
     7
100
AcDbPolyline
 90
       25
 70
     0
 43
0.5
 10
265.3195551108071
 20
151.6410323562939
 10
265.3272917936989
 20
151.6543075027779
 10
265.335026092405
 20
151.6675826492619
 10
265.342760391111
 20
151.6808566036539
 10
265.350494689817
 20
151.6941305580459
 10
265.358226604337
 20
151.7074033203439
 10
265.3659561346721
 20
151.7206772747359
 10
265.3736856650061
 20
151.7339512291269
 10
265.381415195341
 20
151.7472239914259
 10
265.389139957304
 20
151.7604979458169
 10
265.396864719267
 20
151.7737719002089
 10
265.404587097043
 20
151.7870470466929
 10
265.412307090635
 20
151.8003210010849
 10
265.42002470004
 20
151.8135961475689
 10
265.427737541074
 20
151.8268712940529
 10
265.435447997922
 20
151.8401452484449
 10
265.443153686399
 20
151.8534192028359
 10
265.45085699069
 20
151.8666919651349
 10
265.4585555266091
 20
151.8799659195259
 10
265.4662492941569
 20
151.8932398739179
 10
265.4739382933329
 20
151.9065126362159
 10
265.4816249083229
 20
151.9197865906079
 10
265.489304370756
 20
151.9330605449989
 10
265.496979064817
 20
151.9463356914839
 10
265.504651374692
 20
151.9596108379679
  0
LWPOLYLINE
  5
7B2
330
1F
100
AcDbEntity
  8
Sichtbare_Kanten_TC_020513_DIN_
  6
Continuous
 62
     7
100
AcDbPolyline
 90
       25
 70
     0
 43
0.5
 10
265.6897452543921
 20
151.9596108379679
 10
265.674403018827
 20
151.9463356914839
 10
265.659053630704
 20
151.9330605449989
 10
265.643692321653
 20
151.9197865906079
 10
265.628321475858
 20
151.9065126362159
 10
265.6129410933201
 20
151.8932398739179
 10
265.5975535582251
 20
151.8799659195259
 10
265.582156486386
 20
151.8666919651349
 10
265.5667522619909
 20
151.8534192028359
 10
265.551338500852
 20
151.8401452484449
 10
265.5359199713411
 20
151.8268712940529
 10
265.5204919050881
 20
151.8135961475689
 10
265.505056686276
 20
151.8003210010849
 10
265.48961908328
 20
151.7870470466929
 10
265.474174327726
 20
151.7737719002089
 10
265.4587248038
 20
151.7604979458169
 10
265.443272895688
 20
151.7472239914259
 10
265.4278162192051
 20
151.7339512291269
 10
265.412357158536
 20
151.7206772747359
 10
265.3968957136809
 20
151.7074033203439
 10
265.3814318846411
 20
151.6941305580459
 10
265.3659656714141
 20
151.6808566036539
 10
265.350497074002
 20
151.6675826492619
 10
265.335026092405
 20
151.6543075027779
 10
265.3195551108071
 20
151.6410323562939
  0
LWPOLYLINE
  5
7B3
330
1F
100
AcDbEntity
  8
Sichtbare_Kanten_TC_020513_DIN_
  6
Continuous
 62
     7
100
AcDbPolyline
 90
       25
 70
     0
 43
0.5
 10
265.504651374692
 20
151.9596108379679
 10
265.5118802260109
 20
151.9718893947919
 10
265.520501441831
 20
151.9860359611829
 10
265.5305174063391
 20
152.0018264236769
 10
265.541928119535
 20
152.0190390529949
 10
265.554733581419
 20
152.0374485435799
 10
265.5689385603611
 20
152.0568307819679
 10
265.5845406721779
 20
152.0769640388809
 10
265.601542301053
 20
152.0976230087599
 10
265.6199458311741
 20
152.1185835781409
 10
265.63975126254
 20
152.1396240177469
 10
265.660958595151
 20
152.1605202141119
 10
265.683570213193
 20
152.1810468616799
 10
265.707564658994
 20
152.2009643497779
 10
265.7324484060949
 20
152.2197362366039
 10
265.758002109403
 20
152.2371324482279
 10
265.784187621946
 20
152.2530671539619
 10
265.8109596441931
 20
152.2674509468399
 10
265.838275260801
 20
152.2801968040779
 10
265.866070098753
 20
152.2912081661539
 10
265.894055671568
 20
152.3003252926189
 10
265.9221175383281
 20
152.3074850025489
 10
265.9501937102031
 20
152.3126479568799
 10
265.978226966733
 20
152.3157736244519
 10
266.006155319089
 20
152.3168226661999
  0
LWPOLYLINE
  5
7B4
330
1F
100
AcDbEntity
  8
Sichtbare_Kanten_TC_020513_DIN_
  6
Continuous
 62
     7
100
AcDbPolyline
 90
       25
 70
     0
 43
0.5
 10
266.692753143186
 20
152.3168226661999
 10
266.646185226316
 20
152.3160990658119
 10
266.599181003446
 20
152.3139211120919
 10
266.5518024634069
 20
152.3102780762029
 10
266.504111595029
 20
152.3051616134959
 10
266.4561703871431
 20
152.2985598030409
 10
266.4080432127661
 20
152.2904654922799
 10
266.3597872923559
 20
152.2808679523779
 10
266.311466998929
 20
152.2697564544989
 10
266.263144321317
 20
152.2571226539929
 10
266.214881248349
 20
152.2429570141159
 10
266.166742153043
 20
152.2272464218459
 10
266.1188200186431
 20
152.2099682274179
 10
266.071214980954
 20
152.1910962047889
 10
266.0240176390349
 20
152.1706053200079
 10
265.977320976133
 20
152.1484741154029
 10
265.931222743863
 20
152.1246763649299
 10
265.887427635068
 20
152.1001061382609
 10
265.8474949072539
 20
152.0758756580669
 10
265.811431712979
 20
152.0523771229109
 10
265.7792595099151
 20
152.0300039234479
 10
265.750990218991
 20
152.0091494503339
 10
265.726635761136
 20
151.9902035179449
 10
265.706217594022
 20
151.9735595169379
 10
265.6897452543921
 20
151.9596108379679
  0
LWPOLYLINE
  5
7B5
330
1F
100
AcDbEntity
  8
Sichtbare_Kanten_TC_020513_DIN_
  6
Continuous
 62
     7
100
AcDbPolyline
 90
       25
 70
     0
 43
0.5
 10
260.243038244123
 20
140.7566454592069
 10
260.233210630292
 20
140.7057043495489
 10
260.223386592741
 20
140.6548013868649
 10
260.213564939375
 20
140.6039484920819
 10
260.203746862287
 20
140.5531587782219
 10
260.193929977293
 20
140.5024447622619
 10
260.1841142843911
 20
140.4518183651289
 10
260.174297399396
 20
140.4012926998449
 10
260.164480514402
 20
140.3508808794339
 10
260.154662437314
 20
140.3005942287759
 10
260.144840783948
 20
140.2504458608939
 10
260.135016746397
 20
140.2004488888099
 10
260.125189132566
 20
140.1506146374069
 10
260.115360326642
 20
140.1009812536559
 10
260.105536289091
 20
140.0515856924369
 10
260.095714635725
 20
140.0024392786339
 10
260.0858965586371
 20
139.9535539331749
 10
260.076079673643
 20
139.9049418750119
 10
260.0662639807409
 20
139.8566153230979
 10
260.056447095746
 20
139.8085856023149
 10
260.0466302107519
 20
139.7608652296379
 10
260.036812133665
 20
139.7134661259969
 10
260.026990480298
 20
139.6663999142959
 10
260.017166442747
 20
139.6196788134889
 10
260.007338828916
 20
139.5733144464809
  0
LWPOLYLINE
  5
7B6
330
1F
100
AcDbEntity
  8
Sichtbare_Kanten_TC_020513_DIN_
  6
Continuous
 62
     7
100
AcDbPolyline
 90
       25
 70
     0
 43
0.5
 10
260.007338828916
 20
140.1649799528439
 10
260.017166442746
 20
140.1881619873359
 10
260.026990480298
 20
140.2115228357629
 10
260.0368121336641
 20
140.2350559416129
 10
260.0466302107519
 20
140.2587553444219
 10
260.056447095746
 20
140.2826156797729
 10
260.0662639807409
 20
140.3066303911529
 10
260.076079673642
 20
140.3307935180979
 10
260.0858965586371
 20
140.3550996961909
 10
260.095714635724
 20
140.3795423689199
 10
260.10553628909
 20
140.4041155758219
 10
260.115360326642
 20
140.4288133564309
 10
260.125189132565
 20
140.4536303463299
 10
260.135016746396
 20
140.4785474720319
 10
260.144840783948
 20
140.5035456600509
 10
260.154662437314
 20
140.5286201420149
 10
260.164480514401
 20
140.5537631693199
 10
260.174297399396
 20
140.5789693775489
 10
260.1841142843911
 20
140.6042322101909
 10
260.193929977292
 20
140.6295451107339
 10
260.203746862287
 20
140.6549021187149
 10
260.213564939374
 20
140.6802972736679
 10
260.22338659274
 20
140.7057234230359
 10
260.233210630292
 20
140.7311752024009
 10
260.243038244123
 20
140.7566454592069
  0
LWPOLYLINE
  5
7B7
330
1F
100
AcDbEntity
  8
Sichtbare_Kanten_TC_020513_DIN_
  6
Continuous
 62
     7
100
AcDbPolyline
 90
       25
 70
     0
 43
0.5
 10
36.82686798546297
 20
152.5378176155409
 10
36.80638306114656
 20
152.5287875118569
 10
36.78302757713777
 20
152.5187739315349
 10
36.7568969008683
 20
152.5079103889779
 10
36.72808639976972
 20
152.4963351669629
 10
36.69669144127357
 20
152.4841793957069
 10
36.66281692955477
 20
152.4715825500799
 10
36.62653915855867
 20
152.4586757603009
 10
36.5879630324601
 20
152.4455973091439
 10
36.54718391869051
 20
152.4324819031079
 10
36.50429718468178
 20
152.4194630565959
 10
36.45939819786531
 20
152.4066778602919
 10
36.41257278892977
 20
152.3942598285989
 10
36.36392586204988
 20
152.3823460522009
 10
36.3135527846573
 20
152.3710712375959
 10
36.26239769432527
 20
152.3607047977759
 10
36.21149055931551
 20
152.3514481964429
 10
36.16088860008699
 20
152.3432978573159
 10
36.11060135338289
 20
152.3362466278389
 10
36.06067650291908
 20
152.3302933159189
 10
36.01114265892488
 20
152.3254319610909
 10
35.96202843163002
 20
152.3216589870769
 10
35.9133910414933
 20
152.3189696255049
 10
35.86524002525789
 20
152.3173591080029
 10
35.81761352989656
 20
152.3168226661999
  0
LWPOLYLINE
  5
7B8
330
1F
100
AcDbEntity
  8
Sichtbare_Kanten_TC_020513_DIN_
  6
Continuous
 62
     7
100
AcDbPolyline
 90
       25
 70
     0
 43
0.5
 10
37.3101138350724
 20
152.7520784321149
 10
37.2898768660782
 20
152.7431508484199
 10
37.26963989708406
 20
152.7342220726329
 10
37.24941246483309
 20
152.7252944889389
 10
37.229175495839
 20
152.7163669052439
 10
37.20895760033119
 20
152.7074405136419
 10
37.18873970482338
 20
152.6985141220409
 10
37.16852180931551
 20
152.6895865383459
 10
37.14831345055092
 20
152.6806601467449
 10
37.12811462852937
 20
152.6717325630499
 10
37.10793487999428
 20
152.6628049793559
 10
37.08775513145906
 20
152.6538762035689
 10
37.06758491966707
 20
152.6449486198739
 10
37.0474242446183
 20
152.6360198440869
 10
37.0272826430558
 20
152.6270910682989
 10
37.00716011497957
 20
152.6181634846049
 10
36.98704712364656
 20
152.6092370930029
 10
36.96695320579988
 20
152.6003095093089
 10
36.9468878981827
 20
152.5913831177069
 10
36.92683212730867
 20
152.5824555340129
 10
36.90679542992098
 20
152.5735291424109
 10
36.88677780601972
 20
152.5646015587169
 10
36.86678879234779
 20
152.5556739750219
 10
36.84681885216219
 20
152.5467463913279
 10
36.82686798546297
 20
152.5378176155409
  0
LWPOLYLINE
  5
7B9
330
1F
100
AcDbEntity
  8
Sichtbare_Kanten_TC_020513_DIN_
  6
Continuous
 62
     7
100
AcDbPolyline
 90
       25
 70
     0
 43
0.5
 10
34.53469269249428
 20
151.9596108379679
 10
34.53268997642977
 20
151.9463356914839
 10
34.53077309105379
 20
151.9330605449989
 10
34.52894203636629
 20
151.9197865906079
 10
34.52719681236727
 20
151.9065126362159
 10
34.52552788231361
 20
151.8932398739179
 10
34.52395431969148
 20
151.8799659195259
 10
34.52245705101478
 20
151.8666919651349
 10
34.5210456130265
 20
151.8534192028359
 10
34.5197295424698
 20
151.8401452484449
 10
34.51848976585848
 20
151.8268712940529
 10
34.51733581993568
 20
151.8135961475689
 10
34.51626770470131
 20
151.8003210010849
 10
34.51528542015541
 20
151.7870470466929
 10
34.51438896629799
 20
151.7737719002089
 10
34.51357834312898
 20
151.7604979458169
 10
34.51285355064857
 20
151.7472239914259
 10
34.51221458885658
 20
151.7339512291269
 10
34.5116519210099
 20
151.7206772747359
 10
34.5111846205948
 20
151.7074033203439
 10
34.5108031508683
 20
151.6941305580459
 10
34.51049797508699
 20
151.6808566036539
 10
34.51028816673738
 20
151.6675826492619
 10
34.51015465233309
 20
151.6543075027779
 10
34.51011650536049
 20
151.6410323562939
  0
LWPOLYLINE
  5
7BA
330
1F
100
AcDbEntity
  8
Sichtbare_Kanten_TC_020513_DIN_
  6
Continuous
 62
     7
100
AcDbPolyline
 90
       25
 70
     0
 43
0.5
 10
34.86996643517
 20
152.3168226661999
 10
34.84436027977449
 20
152.3160990658119
 10
34.81966965172279
 20
152.3139211120919
 10
34.79593269798738
 20
152.3102780762029
 10
34.77313988182527
 20
152.3051616134959
 10
34.7513198134659
 20
152.2985598030409
 10
34.73047249290931
 20
152.2904654922799
 10
34.71061699364168
 20
152.2808679523779
 10
34.69176285240638
 20
152.2697564544989
 10
34.67392914268959
 20
152.2571226539929
 10
34.65712540123451
 20
152.2429570141159
 10
34.64136116478431
 20
152.2272464218459
 10
34.62662689659578
 20
152.2099682274179
 10
34.6129035231827
 20
152.1910962047889
 10
34.600191044545
 20
152.1706053200079
 10
34.58847992393959
 20
152.1484741154029
 10
34.5777415511368
 20
152.1246763649299
 10
34.56827156517488
 20
152.1001061382609
 10
34.56022255394447
 20
152.0758756580669
 10
34.55348961327059
 20
152.0523771229109
 10
34.54792015526277
 20
152.0300039234479
 10
34.54338066551668
 20
152.0091494503339
 10
34.53975670311439
 20
151.9902035179449
 10
34.53690521690828
 20
151.9735595169379
 10
34.53469269249428
 20
151.9596108379679
  0
LWPOLYLINE
  5
7BB
330
1F
100
AcDbEntity
  8
Sichtbare_Kanten_TC_020513_DIN_
  6
Continuous
 62
     7
100
AcDbPolyline
 90
       25
 70
     0
 43
0.5
 10
34.51011650536049
 20
150.7334598484349
 10
34.51011650536049
 20
150.7428463878949
 10
34.5100592849015
 20
150.7537826481179
 10
34.50990669701088
 20
150.7662579002699
 10
34.5095824477433
 20
150.7802637996989
 10
34.50902931663978
 20
150.7957896175699
 10
34.50819008324129
 20
150.8128258171399
 10
34.50701706383222
 20
150.8313616695719
 10
34.50543396446687
 20
150.8513864460309
 10
34.5033835646866
 20
150.8728929939589
 10
34.50081818077547
 20
150.8958693924269
 10
34.49767105553138
 20
150.9203061046919
 10
34.49387543175209
 20
150.9461935940109
 10
34.48939316246498
 20
150.9734400692299
 10
34.48438637230379
 20
151.0004826965649
 10
34.47899811241609
 20
151.0266515198069
 10
34.47330467674721
 20
151.0518511715249
 10
34.46742050621498
 20
151.0759803238229
 10
34.4614028212784
 20
151.0989412250839
 10
34.45535652611238
 20
151.1206373157819
 10
34.44936745140541
 20
151.1409684601149
 10
34.44352142784578
 20
151.1598369064649
 10
34.43790428612221
 20
151.1771449032149
 10
34.43260185692299
 20
151.1927923145609
 10
34.42770950767977
 20
151.2066837730719
  0
LWPOLYLINE
  5
7BC
330
1F
100
AcDbEntity
  8
Sichtbare_Kanten_TC_020513_DIN_
  6
Continuous
 62
     7
100
AcDbPolyline
 90
       25
 70
     0
 43
0.5
 10
33.11011307213289
 20
153.5334595623329
 10
33.22344772789472
 20
153.5311659756019
 10
33.33641045067299
 20
153.5243007126169
 10
33.44886772606361
 20
153.5128923836069
 10
33.56069557640541
 20
153.4969684067089
 10
33.6717414138077
 20
153.4765550079659
 10
33.78188126060951
 20
153.4516807976089
 10
33.89098160240638
 20
153.4223731937719
 10
33.9988898513077
 20
153.3886584225019
 10
34.10549156639559
 20
153.3505639019329
 10
34.21062462303621
 20
153.3081206264809
 10
34.3138980147599
 20
153.2614847603159
 10
34.41504471275789
 20
153.2107874336559
 10
34.5139598128556
 20
153.1561073246319
 10
34.61051933739168
 20
153.0975219192819
 10
34.70460884544838
 20
153.0351087036449
 10
34.7961138961075
 20
152.9689463558509
 10
34.88492958519447
 20
152.8991123619399
 10
34.97092239830477
 20
152.8256830158549
 10
35.05398743126381
 20
152.7487393799139
 10
35.13400070641029
 20
152.6683720531779
 10
35.21066658470619
 20
152.5848576011969
 10
35.28386108849031
 20
152.4983545723279
 10
35.35347931358797
 20
152.4089738312079
 10
35.41943542931068
 20
152.3168226661999
  0
LWPOLYLINE
  5
7BD
330
1F
100
AcDbEntity
  8
Sichtbare_Kanten_TC_020513_DIN_
  6
Continuous
 62
     7
100
AcDbPolyline
 90
       25
 70
     0
 43
0.5
 10
34.42770950767977
 20
151.2066837730719
 10
34.40176956627357
 20
151.2734910431219
 10
34.37250130150301
 20
151.3387545528729
 10
34.33999054405678
 20
151.4023539009409
 10
34.30429451439369
 20
151.4641698780379
 10
34.26549904320228
 20
151.5240832748729
 10
34.22368042442787
 20
151.5819748821569
 10
34.1789054152726
 20
151.6377254906019
 10
34.13125030968178
 20
151.6912146988229
 10
34.0808772322892
 20
151.7422326984719
 10
34.02807228538978
 20
151.7905100765539
 10
33.9729499099015
 20
151.8359621944739
 10
33.91563408348549
 20
151.8785103741009
 10
33.85622971031648
 20
151.9180747452099
 10
33.7948607680558
 20
151.9545778217629
 10
33.73163216087801
 20
151.9879385414439
 10
33.66666786644447
 20
152.0180794182139
 10
33.6001586196183
 20
152.0448919716199
 10
33.53248589012611
 20
152.0682259979559
 10
33.4638118026017
 20
152.0880445423439
 10
33.39426033470619
 20
152.1043213787399
 10
33.32397453758699
 20
152.1170290890059
 10
33.25309746239168
 20
152.1261390629129
 10
33.18177216026771
 20
152.1316250744179
 10
33.11011307213289
 20
152.1334597053839
  0
LWPOLYLINE
  5
7BE
330
1F
100
AcDbEntity
  8
Sichtbare_Kanten_TC_020513_DIN_
  6
Continuous
 62
     7
100
AcDbPolyline
 90
       25
 70
     0
 43
0.5
 10
35.91011993858797
 20
140.7566454592069
 10
35.90965263817299
 20
140.7057043495489
 10
35.90826027367098
 20
140.6548013868649
 10
35.90595238182527
 20
140.6039484920819
 10
35.90270988914949
 20
140.5531587782219
 10
35.89855186913002
 20
140.5024447622619
 10
35.89347832176668
 20
140.4518183651289
 10
35.88747971031648
 20
140.4012926998449
 10
35.88055603477937
 20
140.3508808794339
 10
35.87272636864168
 20
140.3005942287759
 10
35.86398117516029
 20
140.2504458608939
 10
35.8543204543351
 20
140.2004488888099
 10
35.84374420616609
 20
140.1506146374069
 10
35.83227150413978
 20
140.1009812536559
 10
35.81989281151277
 20
140.0515856924369
 10
35.80662720177156
 20
140.0024392786339
 10
35.79247467491609
 20
139.9535539331749
 10
35.77743523094637
 20
139.9049418750119
 10
35.7615184066056
 20
139.8566153230979
 10
35.74472420189369
 20
139.8085856023149
 10
35.72706215355379
 20
139.7608652296379
 10
35.70853226158607
 20
139.7134661259969
 10
35.68914406273348
 20
139.6663999142959
 10
35.66888802025301
 20
139.6196788134889
 10
35.64777367088777
 20
139.5733144464809
  0
LWPOLYLINE
  5
7BF
330
1F
100
AcDbEntity
  8
Sichtbare_Kanten_TC_020513_DIN_
  6
Continuous
 62
     7
100
AcDbPolyline
 90
       25
 70
     0
 43
0.5
 10
34.37894813988197
 20
140.1649799528439
 10
34.38950531456459
 20
140.1881619873359
 10
34.3996237990616
 20
140.2115228357629
 10
34.40932266685951
 20
140.2350559416129
 10
34.41859238121498
 20
140.2587553444219
 10
34.4274234053849
 20
140.2826156797729
 10
34.43581573936928
 20
140.3066303911529
 10
34.44377891991121
 20
140.3307935180979
 10
34.45129387352449
 20
140.3550996961909
 10
34.45837013695228
 20
140.3795423689199
 10
34.46500771019447
 20
140.4041155758219
 10
34.47118751976478
 20
140.4288133564309
 10
34.47692863914949
 20
140.4536303463299
 10
34.4822215316056
 20
140.4785474720319
 10
34.48704712364662
 20
140.5035456600509
 10
34.49142448875887
 20
140.5286201420149
 10
34.49533455345619
 20
140.5537631693199
 10
34.49879639122469
 20
140.5789693775489
 10
34.5017909285782
 20
140.6042322101909
 10
34.50433723900301
 20
140.6295451107339
 10
34.50641624901277
 20
140.6549021187149
 10
34.50803749535072
 20
140.6802972736679
 10
34.50919144127357
 20
140.7057234230359
 10
34.50988762352449
 20
140.7311752024009
 10
34.51011650536049
 20
140.7566454592069
  0
LWPOLYLINE
  5
7C0
330
1F
100
AcDbEntity
  8
Sichtbare_Kanten_TC_020513_DIN_
  6
Continuous
 62
     7
100
AcDbPolyline
 90
       25
 70
     0
 43
0.5
 10
164.535889553761
 20
152.3168226661999
 10
164.488131928182
 20
152.3173614921889
 10
164.43984262917
 20
152.3189815464339
 10
164.391052651143
 20
152.3216875973059
 10
164.341797756886
 20
152.3254844131789
 10
164.292113709187
 20
152.3303743782359
 10
164.242036270833
 20
152.3363634529429
 10
164.191594052052
 20
152.3434552135779
 10
164.140827584004
 20
152.3516544285139
 10
164.089767861104
 20
152.3609646740279
 10
164.038481640553
 20
152.3713859501199
 10
163.988230156636
 20
152.3826679172829
 10
163.939707207417
 20
152.3945816936809
 10
163.893008160329
 20
152.4069913807229
 10
163.848225998616
 20
152.4197634640059
 10
163.805456089711
 20
152.4327632370309
 10
163.764791416859
 20
152.4458559933019
 10
163.726327347493
 20
152.4589082184149
 10
163.690161633229
 20
152.4717840137799
 10
163.656382488942
 20
152.4843498649909
 10
163.625087666249
 20
152.4964698734599
 10
163.596372532582
 20
152.5080117168739
 10
163.570330071187
 20
152.5188394966439
 10
163.547053265309
 20
152.5288196983649
 10
163.526637482381
 20
152.5378176155409
  0
LWPOLYLINE
  5
7C1
330
1F
100
AcDbEntity
  8
Sichtbare_Kanten_TC_020513_DIN_
  6
Continuous
 62
     7
100
AcDbPolyline
 90
       25
 70
     0
 43
0.5
 10
165.818812775349
 20
151.9596108379679
 10
165.817062782979
 20
151.9709726753549
 10
165.814888405537
 20
151.9845851841289
 10
165.812172817922
 20
152.0001741829229
 10
165.808803963399
 20
152.0174714508369
 10
165.804672169423
 20
152.0362051906899
 10
165.799658226704
 20
152.0561047973949
 10
165.793657231068
 20
152.0769008579569
 10
165.78654758904
 20
152.0983203831029
 10
165.778224396443
 20
152.1200939598399
 10
165.76856844399
 20
152.1419509830789
 10
165.757472443318
 20
152.1636208477339
 10
165.744819569325
 20
152.1848329487159
 10
165.730495381093
 20
152.2053154888469
 10
165.714423584676
 20
152.2247573318799
 10
165.696937966084
 20
152.2424444141699
 10
165.678167271352
 20
152.2582086506209
 10
165.658125805592
 20
152.2720631542519
 10
165.636830258107
 20
152.2840246143659
 10
165.61429493401
 20
152.2941073360759
 10
165.590534138417
 20
152.3023232403119
 10
165.565564560628
 20
152.3086890163739
 10
165.539398121571
 20
152.3132177772839
 10
165.512051510548
 20
152.3159238281569
 10
165.483539032674
 20
152.3168226661999
  0
LWPOLYLINE
  5
7C2
330
1F
100
AcDbEntity
  8
Sichtbare_Kanten_TC_020513_DIN_
  6
Continuous
 62
     7
100
AcDbPolyline
 90
       25
 70
     0
 43
0.5
 10
165.843391346669
 20
151.6410323562939
 10
165.843348431325
 20
151.6543075027779
 10
165.843219685292
 20
151.6675826492619
 10
165.843007492757
 20
151.6808566036539
 10
165.842707085347
 20
151.6941305580459
 10
165.842323231435
 20
151.7074033203439
 10
165.841853546834
 20
151.7206772747359
 10
165.841298031544
 20
151.7339512291269
 10
165.840656685567
 20
151.7472239914259
 10
165.839929508901
 20
151.7604979458169
 10
165.839118885732
 20
151.7737719002089
 10
165.838222431874
 20
151.7870470466929
 10
165.837240147328
 20
151.8003210010849
 10
165.836172032094
 20
151.8135961475689
 10
165.835018086171
 20
151.8268712940529
 10
165.833780693745
 20
151.8401452484449
 10
165.832457470631
 20
151.8534192028359
 10
165.831050801015
 20
151.8666919651349
 10
165.829555916524
 20
151.8799659195259
 10
165.82797758553
 20
151.8932398739179
 10
165.826315808034
 20
151.9065126362159
 10
165.824565815663
 20
151.9197865906079
 10
165.82273237679
 20
151.9330605449989
 10
165.820815491414
 20
151.9463356914839
 10
165.818812775349
 20
151.9596108379679
  0
LWPOLYLINE
  5
7C3
330
1F
100
AcDbEntity
  8
Sichtbare_Kanten_TC_020513_DIN_
  6
Continuous
 62
     7
100
AcDbPolyline
 90
       25
 70
     0
 43
0.5
 10
163.526637482381
 20
152.5378176155409
 10
163.506691384053
 20
152.5467463913279
 10
163.486719059682
 20
152.5556739750219
 10
163.466727661824
 20
152.5646015587169
 10
163.446712422108
 20
152.5735291424109
 10
163.426678108907
 20
152.5824555340129
 10
163.406624722218
 20
152.5913831177069
 10
163.386549877858
 20
152.6003095093089
 10
163.366458344197
 20
152.6092370930029
 10
163.346350121236
 20
152.6181634846049
 10
163.326225208974
 20
152.6270910682989
 10
163.306083607411
 20
152.6360198440869
 10
163.285925316548
 20
152.6449486198739
 10
163.265757488942
 20
152.6538762035689
 10
163.245577740407
 20
152.6628049793559
 10
163.225388455129
 20
152.6717325630499
 10
163.205192017293
 20
152.6806601467449
 10
163.184986042714
 20
152.6895865383459
 10
163.164772915578
 20
152.6985141220409
 10
163.144552635884
 20
152.7074405136419
 10
163.124329972005
 20
152.7163669052439
 10
163.104100155568
 20
152.7252944889389
 10
163.08386557076
 20
152.7342220726329
 10
163.063630985951
 20
152.7431508484199
 10
163.043391632771
 20
152.7520784321149
  0
LWPOLYLINE
  5
7C4
330
1F
100
AcDbEntity
  8
Sichtbare_Kanten_TC_020513_DIN_
  6
Continuous
 62
     7
100
AcDbPolyline
 90
       25
 70
     0
 43
0.5
 10
165.925795960164
 20
151.2066837730719
 10
165.920901226735
 20
151.1927923145609
 10
165.915603565907
 20
151.1771449032149
 10
165.909986424184
 20
151.1598369064649
 10
165.904140400624
 20
151.1409684601149
 10
165.898148941731
 20
151.1206373157819
 10
165.892105030751
 20
151.0989412250839
 10
165.886092114186
 20
151.0759803238229
 10
165.880198406911
 20
151.0518511715249
 10
165.874512123799
 20
151.0266515198069
 10
165.869121479726
 20
151.0004826965649
 10
165.864114689565
 20
150.9734400692299
 10
165.859632420277
 20
150.9461935940109
 10
165.85584156487
 20
150.9203061046919
 10
165.85269205544
 20
150.8958693924269
 10
165.850124287343
 20
150.8728929939589
 10
165.848076271748
 20
150.8513864460309
 10
165.846493172383
 20
150.8313616695719
 10
165.845315384602
 20
150.8128258171399
 10
165.84447853539
 20
150.7957896175699
 10
165.843930172658
 20
150.7802637996989
 10
165.84360592339
 20
150.7662579002699
 10
165.843446182942
 20
150.7537826481179
 10
165.843396115041
 20
150.7428463878949
 10
165.843391346669
 20
150.7334598484349
  0
LWPOLYLINE
  5
7C5
330
1F
100
AcDbEntity
  8
Sichtbare_Kanten_TC_020513_DIN_
  6
Continuous
 62
     7
100
AcDbPolyline
 90
       25
 70
     0
 43
0.5
 10
167.243392395711
 20
152.1334597053839
 10
167.171745228505
 20
152.1316250744179
 10
167.10043184731
 20
152.1261414470989
 10
167.02958576653
 20
152.1170362415629
 10
166.959342884755
 20
152.1043404522259
 10
166.889843868947
 20
152.0880826893169
 10
166.82122223351
 20
152.0682903709729
 10
166.753618645406
 20
152.0449944916089
 10
166.687169003224
 20
152.0182236614539
 10
166.622128414845
 20
151.9880649032909
 10
166.558844971394
 20
151.9546863022169
 10
166.497435497975
 20
151.9181748810129
 10
166.438016819691
 20
151.8786105099039
 10
166.380700993276
 20
151.8360766353919
 10
166.325602459645
 20
151.7906555118879
 10
166.272833275533
 20
151.7424282017069
 10
166.222507881856
 20
151.6914781513529
 10
166.17479317162
 20
151.6379484119729
 10
166.12995855782
 20
151.5821453514419
 10
166.088089871144
 20
151.5242060604409
 10
166.049263405537
 20
151.4642509403549
 10
166.013548302388
 20
151.4024015846569
 10
165.98101608727
 20
151.3387760105449
 10
165.951740669942
 20
151.2734970035869
 10
165.925795960164
 20
151.2066837730719
  0
LWPOLYLINE
  5
7C6
330
1F
100
AcDbEntity
  8
Sichtbare_Kanten_TC_020513_DIN_
  6
Continuous
 62
     7
100
AcDbPolyline
 90
       25
 70
     0
 43
0.5
 10
164.934072422719
 20
152.3168226661999
 10
164.999785351491
 20
152.4086400451979
 10
165.069217610097
 20
152.4978193226179
 10
165.142295288777
 20
152.5842412891699
 10
165.218903946614
 20
152.6677438202219
 10
165.298721718526
 20
152.7479728641829
 10
165.381600784993
 20
152.8248080196699
 10
165.467429089284
 20
152.8981658401799
 10
165.556094574666
 20
152.9679676475839
 10
165.647487568593
 20
153.0341299953779
 10
165.741493630147
 20
153.0965718212439
 10
165.838003086781
 20
153.1552108707739
 10
165.936901497578
 20
153.2099660816509
 10
166.038079189992
 20
153.2607551994639
 10
166.141345429158
 20
153.3074637832959
 10
166.24634735558
 20
153.3499273243269
 10
166.352937149739
 20
153.3880957546549
 10
166.460986065602
 20
153.4219237747509
 10
166.570358204579
 20
153.4513684692699
 10
166.680908131337
 20
153.4763809624029
 10
166.792325901723
 20
153.4968885364849
 10
166.904420780873
 20
153.5128661575629
 10
167.017056870198
 20
153.5242971363379
 10
167.130093502736
 20
153.5311671676949
 10
167.243392395711
 20
153.5334595623329
  0
LWPOLYLINE
  5
7C7
330
1F
100
AcDbEntity
  8
Sichtbare_Kanten_TC_020513_DIN_
  6
Continuous
 62
     7
100
AcDbPolyline
 90
       25
 70
     0
 43
0.5
 10
165.843391346669
 20
140.7566454592069
 10
165.843622612691
 20
140.7311752024009
 10
165.844318794942
 20
140.7057234230359
 10
165.84547512505
 20
140.6802972736679
 10
165.847093987203
 20
140.6549021187149
 10
165.849172997212
 20
140.6295451107339
 10
165.85171215508
 20
140.6042322101909
 10
165.854711460805
 20
140.5789693775489
 10
165.858168530202
 20
140.5537631693199
 10
165.862085747456
 20
140.5286201420149
 10
165.866460728383
 20
140.5035456600509
 10
165.871291088795
 20
140.4785474720319
 10
165.876576828694
 20
140.4536303463299
 10
165.882315563893
 20
140.4288133564309
 10
165.888502526021
 20
140.4041155758219
 10
165.895135330891
 20
140.3795423689199
 10
165.902211594319
 20
140.3550996961909
 10
165.909731316304
 20
140.3307935180979
 10
165.917689728474
 20
140.3066303911529
 10
165.926084446645
 20
140.2826156797729
 10
165.934917855
 20
140.2587553444219
 10
165.944182800984
 20
140.2350559416129
 10
165.953879284596
 20
140.2115228357629
 10
165.964004921651
 20
140.1881619873359
 10
165.974559712147
 20
140.1649799528439
  0
LWPOLYLINE
  5
7C8
330
1F
100
AcDbEntity
  8
Sichtbare_Kanten_TC_020513_DIN_
  6
Continuous
 62
     7
100
AcDbPolyline
 90
       25
 70
     0
 43
0.5
 10
164.70572941277
 20
139.5733144464809
 10
164.684619831776
 20
139.6196788134889
 10
164.664368557668
 20
139.6663999142959
 10
164.644973206258
 20
139.7134661259969
 10
164.62644331429
 20
139.7608652296379
 10
164.608778881764
 20
139.8085856023149
 10
164.591987061238
 20
139.8566153230979
 10
164.576070236897
 20
139.9049418750119
 10
164.561033177113
 20
139.9535539331749
 10
164.546880650258
 20
140.0024392786339
 10
164.533615040517
 20
140.0515856924369
 10
164.521241116261
 20
140.1009812536559
 10
164.509761261677
 20
140.1506146374069
 10
164.49918978188
 20
140.2004488888099
 10
164.489529061055
 20
140.2504458608939
 10
164.480781483388
 20
140.3005942287759
 10
164.472947048879
 20
140.3508808794339
 10
164.466032910085
 20
140.4012926998449
 10
164.460034298634
 20
140.4518183651289
 10
164.454953598714
 20
140.5024447622619
 10
164.450795578694
 20
140.5531587782219
 10
164.44755785439
 20
140.6039484920819
 10
164.445245194173
 20
140.6548013868649
 10
164.443855213857
 20
140.7057043495489
 10
164.443390297627
 20
140.7566454592069
  0
LWPOLYLINE
  5
7C9
330
1F
100
AcDbEntity
  8
Sichtbare_Kanten_TC_020513_DIN_
  6
Continuous
 62
     7
100
AcDbPolyline
 90
       25
 70
     0
 43
0.5
 10
41.17675774071199
 20
81.29519667056368
 10
41.09801285240638
 20
80.99058355716038
 10
41.01967804405678
 20
80.68783487704567
 10
40.94201080772859
 20
80.38708414462378
 10
40.8652781722306
 20
80.08846487429908
 10
40.78975670311439
 20
79.79211534884737
 10
40.71570389244539
 20
79.49815954592998
 10
40.6433867690323
 20
79.20673574832249
 10
40.57308189842689
 20
78.91797747042948
 10
40.50504677269441
 20
78.63201822665508
 10
40.43956749413002
 20
78.34898676303197
 10
40.37688248131258
 20
78.06902136233619
 10
40.31728737328041
 20
77.79224600222878
 10
40.26103966209882
 20
77.51880373385718
 10
40.20839683983309
 20
77.24882330325418
 10
40.1596450087784
 20
76.98244299319558
 10
40.11503212425691
 20
76.71978201297098
 10
40.0746726271866
 20
76.46008695987038
 10
40.03824226829988
 20
76.20003427890109
 10
40.00613205406648
 20
75.93977655795388
 10
39.9788092849015
 20
75.67984308627418
 10
39.9567317244767
 20
75.42076792147928
 10
39.9403952834366
 20
75.16308988955788
 10
39.93023865196687
 20
74.90733827975558
 10
39.92675774071199
 20
74.65405191806128
  0
LWPOLYLINE
  5
7CA
330
1F
100
AcDbEntity
  8
Sichtbare_Kanten_TC_020513_DIN_
  6
Continuous
 62
     7
100
AcDbPolyline
 90
       25
 70
     0
 43
0.5
 10
39.92675774071199
 20
101.2576219024969
 10
39.93023865196687
 20
101.0043355408029
 10
39.9403952834366
 20
100.7485863151869
 10
39.9567317244767
 20
100.4909058990789
 10
39.9788092849015
 20
100.2318331184699
 10
40.00613205406648
 20
99.97189726260488
 10
40.03824226829988
 20
99.71163715747188
 10
40.0746726271866
 20
99.45158686068788
 10
40.11503212425691
 20
99.19189180758788
 10
40.1596450087784
 20
98.92923321154888
 10
40.20839683983309
 20
98.66284813311889
 10
40.26103966209882
 20
98.39287008670188
 10
40.31728737328041
 20
98.11942781832988
 10
40.37688248131258
 20
97.84265484240788
 10
40.43956749413002
 20
97.56268705752689
 10
40.50504677269441
 20
97.27965797808888
 10
40.57308189842689
 20
96.99369635012889
 10
40.6433867690323
 20
96.70493807223588
 10
40.71570389244539
 20
96.41351665881388
 10
40.78975670311439
 20
96.11956085589688
 10
40.8652781722306
 20
95.82320894625988
 10
40.94201080772859
 20
95.52459206012088
 10
41.01967804405678
 20
95.22384132769888
 10
41.09801285240638
 20
94.92109026339789
 10
41.17675774071199
 20
94.61647714999488
  0
LWPOLYLINE
  5
7CB
330
1F
100
AcDbEntity
  8
Sichtbare_Kanten_TC_020513_DIN_
  6
Continuous
 62
     7
100
AcDbPolyline
 90
       25
 70
     0
 43
0.5
 10
159.176754879689
 20
94.61647714999488
 10
159.254972862935
 20
94.91881575015388
 10
159.332895207143
 20
95.21957363513287
 10
159.410235810017
 20
95.51866259005888
 10
159.486727642751
 20
95.81598486331288
 10
159.562101292348
 20
96.11144985583589
 10
159.636092114186
 20
96.40496220019588
 10
159.708430695271
 20
96.69643129733387
 10
159.778852390981
 20
96.98576177981688
 10
159.847087788319
 20
97.27286304858488
 10
159.912872242665
 20
97.55763973620688
 10
159.975936341023
 20
97.83999885943688
 10
160.036013054585
 20
98.11984743502887
 10
160.092837738728
 20
98.39709247973688
 10
160.146138596272
 20
98.67164101031588
 10
160.195650982594
 20
98.94340004351888
 10
160.241110253072
 20
99.21227421191487
 10
160.282244610524
 20
99.47817053225788
 10
160.318789410329
 20
99.74099840548789
 10
160.350477623677
 20
100.0006648483589
 10
160.377042221761
 20
100.2570721092539
 10
160.398213791585
 20
100.5101295891119
 10
160.413727688527
 20
100.7597466888739
 10
160.423362183308
 20
101.0073753776869
 10
160.426754879689
 20
101.2576219024969
  0
LWPOLYLINE
  5
7CC
330
1F
100
AcDbEntity
  8
Sichtbare_Kanten_TC_020513_DIN_
  6
Continuous
 62
     7
100
AcDbPolyline
 90
       25
 70
     0
 43
0.5
 10
160.426754879689
 20
74.65405191806128
 10
160.423362183308
 20
74.90430082705788
 10
160.413727688527
 20
75.15192713168437
 10
160.398213791585
 20
75.40154184726048
 10
160.377042221761
 20
75.65460409549048
 10
160.350477623677
 20
75.91100897219948
 10
160.318789410329
 20
76.17067541507058
 10
160.282244610524
 20
76.43350328830059
 10
160.241110253072
 20
76.69940199282938
 10
160.195650982594
 20
76.96827616122538
 10
160.146138596272
 20
77.24003519442849
 10
160.092837738728
 20
77.51458372500709
 10
160.036013054585
 20
77.79182638552957
 10
159.975936341023
 20
78.07167734530738
 10
159.912872242665
 20
78.35403646853737
 10
159.847087788319
 20
78.63881315615939
 10
159.778852390981
 20
78.92591204074198
 10
159.708430695271
 20
79.21524252322487
 10
159.636092114186
 20
79.50671400454809
 10
159.562101292348
 20
79.80022634890848
 10
159.486727642751
 20
80.09568895724588
 10
159.410235810017
 20
80.39301123050028
 10
159.332895207143
 20
80.69210256961158
 10
159.254972862935
 20
80.99285807040508
 10
159.176754879689
 20
81.29519667056368
  0
SOLID
  5
7CD
330
1F
100
AcDbEntity
  8
1
 62
     2
100
AcDbTrace
 10
269.0425585343953
 20
59.9029731831703
 30
0.0
 11
268.4354912090851
 21
59.39756745813673
 31
0.0
 12
266.8195560644809
 22
61.95583738711648
 32
0.0
 13
266.8195560644809
 23
61.95583738711648
 33
0.0
  0
LEADER
  5
7CE
330
1F
100
AcDbEntity
  8
1
  6
Continuous
 62
     2
100
AcDbLeader
  3
Standard
 71
     0
 76
     3
 10
266.8195560644809
 20
61.95583738711648
 30
0.0
 10
278.584757682745
 20
47.8240831857559
 30
0.0
 10
288.669965145409
 20
47.8240831857559
 30
0.0
  0
MTEXT
  5
7CF
330
1F
100
AcDbEntity
  8
1
 62
     7
100
AcDbMText
 10
256.6763006887431
 20
10.0606394207561
 30
0.0
 40
4.5
 41
0.0
 71
     5
 72
     1
  1
1:1
  7
CONVERTER_11
 73
     1
 44
0.75727272727273
  0
MTEXT
  5
7D0
330
1F
100
AcDbEntity
  8
1
 62
     7
100
AcDbMText
 10
119.6
 20
7.49999999999987
 30
0.0
 40
3.0
 41
0.0
 71
     4
 72
     1
  1
Pezzimenti
  7
CONVERTER_11
 73
     1
 44
0.75727272727273
  0
MTEXT
  5
7D1
330
1F
100
AcDbEntity
  8
1
 62
     7
100
AcDbMText
 10
119.6
 20
12.4999999999999
 30
0.0
 40
3.0
 41
0.0
 71
     4
 72
     1
  1
08/08/14
  7
CONVERTER_11
 73
     1
 44
0.75727272727273
  0
MTEXT
  5
7D2
330
1F
100
AcDbEntity
  8
1
 62
     7
100
AcDbMText
 10
144.276300688743
 20
12.5
 30
0.0
 40
4.5
 41
0.0
 71
     4
 72
     1
  1
M7AP 24.240\Psurface mounting h. 2 lev. 2xM40.
  7
CONVERTER_11
 73
     1
 44
0.75727272727273
  0
MTEXT
  5
7D4
330
1F
100
AcDbEntity
  8
1
 62
     4
100
AcDbMText
 10
278.931143211613
 20
49.3587886692048
 30
0.0
 40
3.5
 41
0.0
 71
     7
 72
     1
  1
\U+00f85,5
  7
CONVERTER_13
 73
     1
 44
1.32052821128451
  0
DIMENSION
  5
7DF
330
1F
100
AcDbEntity
  8
1
100
AcDbDimension
  2
*D2
 10
16.74280395429862
 20
175.313512369028
 30
0.0
 11
100.1767539260148
 21
178.813512369028
 31
0.0
 70
    32
  1
169
 71
     5
 42
-1.0
 53
0.00013888888889
  3
ME10_DIM_10
100
AcDbAlignedDimension
 13
183.610703897731
 23
124.9558373871159
 33
0.0
 14
16.74280395429867
 24
123.9558390389283
 34
0.0
100
AcDbRotatedDimension
  0
DIMENSION
  5
7EA
330
1F
100
AcDbEntity
  8
1
100
AcDbDimension
  2
*D3
 10
34.30175392601481
 20
47.1
 30
0.0
 11
100.2392539260149
 21
50.6
 31
0.0
 70
    32
  1
132
 71
     5
 42
-1.0
 53
0.00013888888889
  3
ME10_DIM_11
100
AcDbAlignedDimension
 13
166.176753926015
 23
59.45583738711648
 33
0.0
 14
34.30175392601478
 24
59.45583738711648
 34
0.0
100
AcDbRotatedDimension
  0
DIMENSION
  5
7F5
330
1F
100
AcDbEntity
  8
1
100
AcDbDimension
  2
*D4
 10
172.176753926015
 20
32.7
 30
0.0
 11
100.1767539260149
 21
36.2
 31
0.0
 70
    32
  1
<>
 71
     5
 42
-1.0
 53
0.00013888888889
  3
ME10_DIM_12
100
AcDbAlignedDimension
 13
28.17675392601478
 23
61.95583738711648
 33
0.0
 14
172.176753926015
 24
61.95583738711648
 34
0.0
100
AcDbRotatedDimension
  0
DIMENSION
  5
800
330
1F
100
AcDbEntity
  8
1
100
AcDbDimension
  2
*D5
 10
215.819556064479
 20
32.7
 30
0.0
 11
244.319556064479
 21
36.2
 31
0.0
 70
    32
  1
<>
 71
     5
 42
-1.0
 53
0.00013888888889
  3
ME10_DIM_13
100
AcDbAlignedDimension
 13
272.819556064479
 23
61.95583738711648
 33
0.0
 14
215.819556064479
 24
61.95583738711648
 34
0.0
100
AcDbRotatedDimension
  0
DIMENSION
  5
80B
330
1F
100
AcDbEntity
  8
1
100
AcDbDimension
  2
*D6
 10
221.8195560644809
 20
46.7204298603878
 30
0.0
 11
244.3195560644809
 21
50.2204298603878
 31
0.0
 70
    32
  1
<>
 71
     5
 42
-1.0
 53
0.00013888888889
  3
ME10_DIM_14
100
AcDbAlignedDimension
 13
266.8195560644809
 23
59.45583738711648
 33
0.0
 14
221.8195560644809
 24
59.45583738711648
 34
0.0
100
AcDbRotatedDimension
  0
DIMENSION
  5
816
330
1F
100
AcDbEntity
  8
1
100
AcDbDimension
  2
*D7
 10
282.726739982582
 20
141.9558373871169
 30
0.0
 11
279.226739982582
 21
101.9558373871167
 31
0.0
 70
    32
  1
<>
 71
     5
 42
-1.0
 53
90.0
  3
ME10_DIM_15
100
AcDbAlignedDimension
 13
272.819556064479
 23
61.95583738711648
 33
0.0
 14
266.3695560644841
 24
141.9558373871169
 34
0.0
 50
90.0
100
AcDbRotatedDimension
  0
DIMENSION
  5
821
330
1F
100
AcDbEntity
  8
1
100
AcDbDimension
  2
*D8
 10
272.819556064489
 20
174.484417193744
 30
0.0
 11
244.319556064489
 21
177.984417193744
 31
0.0
 70
    32
  1
58
 71
     5
 42
-1.0
 53
0.00013888888889
  3
ME10_DIM_16
100
AcDbAlignedDimension
 13
215.819556064489
 23
138.9558373871169
 33
0.0
 14
272.819556064489
 24
138.9558373871169
 34
0.0
100
AcDbRotatedDimension
  0
DIMENSION
  5
82C
330
1F
100
AcDbEntity
  8
1
100
AcDbDimension
  2
*D9
 10
184.062503471343
 20
67.95583738711649
 30
0.0
 11
180.562503471343
 21
87.95583738711669
 31
0.0
 70
    32
  1
M40
 71
     5
 42
-1.0
 53
90.0
  3
ME10_DIM_17
100
AcDbAlignedDimension
 13
165.676753926015
 23
107.9558373871169
 33
0.0
 14
172.299146355271
 24
67.95583738711649
 34
0.0
 50
90.0
100
AcDbRotatedDimension
  0
DIMENSION
  5
837
330
1F
100
AcDbEntity
  8
1
100
AcDbDimension
  2
*D10
 10
18.3601473748647
 20
67.95583738711647
 30
0.0
 11
14.8601473748647
 21
87.95583738711667
 31
0.0
 70
    32
  1
M40
 71
     5
 42
-1.0
 53
90.0
  3
ME10_DIM_18
100
AcDbAlignedDimension
 13
28.17675392601478
 23
107.9558373871169
 33
0.0
 14
28.3173145031791
 24
67.95583738711647
 34
0.0
 50
90.0
100
AcDbRotatedDimension
  0
DIMENSION
  5
844
330
1F
100
AcDbEntity
  8
1
100
AcDbDimension
  2
*D11
 10
208.304536001407
 20
65.95583738711647
 30
0.0
 11
204.804536001407
 21
74.3991977082713
 31
0.0
 70
    32
  1
<>
 71
     5
 42
-1.0
 53
90.0
  3
ME10_DIM_19
100
AcDbAlignedDimension
 13
215.819556064479
 23
61.95583738711648
 33
0.0
 14
215.819556064479
 24
65.95583738711647
 34
0.0
 50
90.0
100
AcDbRotatedDimension
  0
ENDSEC
  0
SECTION
  2
OBJECTS
  0
DICTIONARY
  5
C
330
0
100
AcDbDictionary
281
     1
  3
ACAD_GROUP
350
D
  3
ACAD_LAYOUT
350
1A
  3
ACAD_MATERIAL
350
3B
  3
ACAD_MLEADERSTYLE
350
847
  3
ACAD_MLINESTYLE
350
17
  3
ACAD_PLOTSETTINGS
350
19
  3
ACAD_PLOTSTYLENAME
350
E
  3
ACAD_VISUALSTYLE
350
2A
  3
AcDbVariableDictionary
350
845
  0
DICTIONARY
  5
D
102
{ACAD_REACTORS
330
C
102
}
330
C
100
AcDbDictionary
281
     1
  0
DICTIONARY
  5
1A
102
{ACAD_REACTORS
330
C
102
}
330
C
100
AcDbDictionary
281
     1
  3
Layout1
350
1E
  3
Layout2
350
26
  3
Model
350
22
  0
DICTIONARY
  5
3B
102
{ACAD_REACTORS
330
C
102
}
330
C
100
AcDbDictionary
281
     1
  3
ByBlock
350
3D
  3
ByLayer
350
3C
  3
Global
350
3E
  0
DICTIONARY
  5
847
102
{ACAD_REACTORS
330
C
102
}
330
C
100
AcDbDictionary
281
     1
  0
DICTIONARY
  5
17
102
{ACAD_REACTORS
330
C
102
}
330
C
100
AcDbDictionary
281
     1
  3
Standard
350
18
  0
DICTIONARY
  5
19
102
{ACAD_REACTORS
330
C
102
}
330
C
100
AcDbDictionary
281
     1
  0
ACDBDICTIONARYWDFLT
  5
E
102
{ACAD_REACTORS
330
C
102
}
330
C
100
AcDbDictionary
281
     1
  3
Normal
350
F
100
AcDbDictionaryWithDefault
340
F
  0
DICTIONARY
  5
2A
102
{ACAD_REACTORS
330
C
102
}
330
C
100
AcDbDictionary
281
     1
  3
2dWireframe
350
2F
  3
3D Hidden
350
31
  3
3dWireframe
350
30
  3
Basic
350
32
  3
Brighten
350
36
  3
ColorChange
350
3A
  3
Conceptual
350
34
  3
Dim
350
35
  3
Facepattern
350
39
  3
Flat
350
2B
  3
FlatWithEdges
350
2C
  3
Gouraud
350
2D
  3
GouraudWithEdges
350
2E
  3
Linepattern
350
38
  3
Realistic
350
33
  3
Thicken
350
37
  0
DICTIONARY
  5
845
102
{ACAD_REACTORS
330
C
102
}
330
C
100
AcDbDictionary
281
     1
  3
DIMASSOC
350
848
  3
HIDETEXT
350
849
  0
LAYOUT
  5
1E
102
{ACAD_REACTORS
330
1A
102
}
330
1A
100
AcDbPlotSettings
  1

  2
none_device
  4

  6

 40
0.0
 41
0.0
 42
0.0
 43
0.0
 44
0.0
 45
0.0
 46
0.0
 47
0.0
 48
0.0
 49
0.0
140
0.0
141
0.0
142
1.0
143
1.0
 70
   688
 72
     0
 73
     0
 74
     5
  7

 75
    16
147
1.0
148
0.0
149
0.0
100
AcDbLayout
  1
Layout1
 70
     1
 71
     1
 10
0.0
 20
0.0
 11
12.0
 21
9.0
 12
0.0
 22
0.0
 32
0.0
 14
1.00000000000000E+20
 24
1.00000000000000E+20
 34
1.00000000000000E+20
 15
-1.00000000000000E+20
 25
-1.00000000000000E+20
 35
-1.00000000000000E+20
146
0.0
 13
0.0
 23
0.0
 33
0.0
 16
1.0
 26
0.0
 36
0.0
 17
0.0
 27
1.0
 37
0.0
 76
     0
330
1B
  0
LAYOUT
  5
26
102
{ACAD_REACTORS
330
1A
102
}
330
1A
100
AcDbPlotSettings
  1

  2
none_device
  4

  6

 40
0.0
 41
0.0
 42
0.0
 43
0.0
 44
0.0
 45
0.0
 46
0.0
 47
0.0
 48
0.0
 49
0.0
140
0.0
141
0.0
142
1.0
143
1.0
 70
   688
 72
     0
 73
     0
 74
     5
  7

 75
    16
147
1.0
148
0.0
149
0.0
100
AcDbLayout
  1
Layout2
 70
     1
 71
     2
 10
0.0
 20
0.0
 11
0.0
 21
0.0
 12
0.0
 22
0.0
 32
0.0
 14
0.0
 24
0.0
 34
0.0
 15
0.0
 25
0.0
 35
0.0
146
0.0
 13
0.0
 23
0.0
 33
0.0
 16
1.0
 26
0.0
 36
0.0
 17
0.0
 27
1.0
 37
0.0
 76
     0
330
23
  0
LAYOUT
  5
22
102
{ACAD_REACTORS
330
1A
102
}
330
1A
100
AcDbPlotSettings
  1

  2
none_device
  4

  6

 40
0.0
 41
0.0
 42
0.0
 43
0.0
 44
0.0
 45
0.0
 46
0.0
 47
0.0
 48
0.0
 49
0.0
140
0.0
141
0.0
142
1.0
143
1.0
 70
  1712
 72
     0
 73
     0
 74
     0
  7

 75
     0
147
1.0
148
0.0
149
0.0
100
AcDbLayout
  1
Model
 70
     1
 71
     0
 10
0.0
 20
0.0
 11
12.0
 21
9.0
 12
0.0
 22
0.0
 32
0.0
 14
0.0
 24
0.0
 34
0.0
 15
296.9999999999999
 25
210.0
 35
0.0
146
0.0
 13
0.0
 23
0.0
 33
0.0
 16
1.0
 26
0.0
 36
0.0
 17
0.0
 27
1.0
 37
0.0
 76
     0
330
1F
331
29
  0
MATERIAL
  5
3D
102
{ACAD_REACTORS
330
3B
102
}
102
{ACAD_XDICTIONARY
360
86C
102
}
330
3B
100
AcDbMaterial
  1
ByBlock
  0
MATERIAL
  5
3C
102
{ACAD_REACTORS
330
3B
102
}
102
{ACAD_XDICTIONARY
360
86A
102
}
330
3B
100
AcDbMaterial
  1
ByLayer
  0
MATERIAL
  5
3E
102
{ACAD_REACTORS
330
3B
102
}
102
{ACAD_XDICTIONARY
360
86E
102
}
330
3B
100
AcDbMaterial
  1
Global
  0
MLINESTYLE
  5
18
102
{ACAD_REACTORS
330
17
102
}
330
17
100
AcDbMlineStyle
  2
Standard
 70
     0
  3

 62
   256
 51
90.0
 52
90.0
 71
     2
 49
0.5
 62
   256
  6
BYLAYER
 49
-0.5
 62
   256
  6
BYLAYER
  0
ACDBPLACEHOLDER
  5
F
102
{ACAD_REACTORS
330
E
102
}
330
E
  0
VISUALSTYLE
  5
2F
102
{ACAD_REACTORS
330
2A
102
}
102
{ACAD_XDICTIONARY
360
852
102
}
330
2A
100
AcDbVisualStyle
  2
2dWireframe
 70
     4
 71
     0
 72
     2
 73
     0
 90
        0
 40
-0.6
 41
-30.0
 62
     5
 63
     7
 74
     1
 91
        4
 64
     7
 65
   257
 75
     1
175
     1
 42
1.0
 92
        0
 66
   257
 43
1.0
 76
     1
 77
     6
 78
     2
 67
     7
 79
     5
170
     0
171
     0
290
     0
174
     0
 93
        1
 44
0.0
173
     0
291
     0
 45
0.0
1001
ACAD
1000
AcDbSavedByObjectVersion
1070
     0
  0
VISUALSTYLE
  5
31
102
{ACAD_REACTORS
330
2A
102
}
102
{ACAD_XDICTIONARY
360
856
102
}
330
2A
100
AcDbVisualStyle
  2
3D Hidden
 70
     6
 71
     1
 72
     2
 73
     2
 90
        0
 40
-0.6
 41
-30.0
 62
     5
 63
     7
 74
     2
 91
        2
 64
     7
 65
   257
 75
     2
175
     1
 42
40.0
 92
        0
 66
   257
 43
1.0
 76
     1
 77
     6
 78
     2
 67
     7
 79
     3
170
     0
171
     0
290
     0
174
     0
 93
        1
 44
0.0
173
     0
291
     0
 45
0.0
1001
ACAD
1000
AcDbSavedByObjectVersion
1070
     0
  0
VISUALSTYLE
  5
30
102
{ACAD_REACTORS
330
2A
102
}
102
{ACAD_XDICTIONARY
360
854
102
}
330
2A
100
AcDbVisualStyle
  2
3dWireframe
 70
     5
 71
     0
 72
     2
 73
     0
 90
        0
 40
-0.6
 41
-30.0
 62
     5
 63
     7
 74
     1
 91
        4
 64
     7
 65
   257
 75
     1
175
     1
 42
1.0
 92
        0
 66
   257
 43
1.0
 76
     1
 77
     6
 78
     2
 67
     7
 79
     5
170
     0
171
     0
290
     0
174
     0
 93
        1
 44
0.0
173
     0
291
     0
 45
0.0
1001
ACAD
1000
AcDbSavedByObjectVersion
1070
     0
  0
VISUALSTYLE
  5
32
102
{ACAD_REACTORS
330
2A
102
}
102
{ACAD_XDICTIONARY
360
858
102
}
330
2A
100
AcDbVisualStyle
  2
Basic
 70
     7
 71
     1
 72
     0
 73
     1
 90
        0
 40
-0.6
 41
-30.0
 62
     5
 63
     7
 74
     0
 91
        4
 64
     7
 65
   257
 75
     1
175
     1
 42
1.0
 92
        8
 66
     7
 43
1.0
 76
     1
 77
     6
 78
     2
 67
     7
 79
     5
170
     0
171
     0
290
     0
174
     0
 93
        1
 44
0.0
173
     0
291
     1
 45
0.0
1001
ACAD
1000
AcDbSavedByObjectVersion
1070
     0
  0
VISUALSTYLE
  5
36
102
{ACAD_REACTORS
330
2A
102
}
102
{ACAD_XDICTIONARY
360
860
102
}
330
2A
100
AcDbVisualStyle
  2
Brighten
 70
    12
 71
     2
 72
     2
 73
     0
 90
        0
 40
-0.6
 41
-30.0
 62
     5
 63
     7
 74
     1
 91
        4
 64
     7
 65
   257
 75
     1
175
     1
 42
1.0
 92
        8
 66
     7
 43
1.0
 76
     1
 77
     6
 78
     2
 67
     7
 79
     5
170
     0
171
     0
290
     0
174
     0
 93
        1
 44
50.0
173
     0
291
     1
 45
0.0
1001
ACAD
1000
AcDbSavedByObjectVersion
1070
     0
  0
VISUALSTYLE
  5
3A
102
{ACAD_REACTORS
330
2A
102
}
102
{ACAD_XDICTIONARY
360
868
102
}
330
2A
100
AcDbVisualStyle
  2
ColorChange
 70
    16
 71
     2
 72
     2
 73
     3
 90
        0
 40
-0.6
 41
-30.0
 62
     5
 63
     8
 74
     1
 91
        4
 64
     7
 65
   257
 75
     1
175
     1
 42
1.0
 92
        8
 66
     8
 43
1.0
 76
     1
 77
     6
 78
     2
 67
     7
 79
     5
170
     0
171
     0
290
     0
174
     0
 93
        1
 44
0.0
173
     0
291
     1
 45
0.0
1001
ACAD
1000
AcDbSavedByObjectVersion
1070
     0
  0
VISUALSTYLE
  5
34
102
{ACAD_REACTORS
330
2A
102
}
102
{ACAD_XDICTIONARY
360
85C
102
}
330
2A
100
AcDbVisualStyle
  2
Conceptual
 70
     9
 71
     3
 72
     2
 73
     0
 90
        0
 40
-0.6
 41
-30.0
 62
     5
 63
     7
 74
     2
 91
        2
 64
     7
 65
   257
 75
     1
175
     1
 42
40.0
 92
        8
 66
     7
 43
1.0
 76
     1
 77
     6
 78
     2
 67
     7
 79
     3
170
     0
171
     0
290
     0
174
     0
 93
        1
 44
0.0
173
     0
291
     0
 45
0.0
1001
ACAD
1000
AcDbSavedByObjectVersion
1070
     0
  0
VISUALSTYLE
  5
35
102
{ACAD_REACTORS
330
2A
102
}
102
{ACAD_XDICTIONARY
360
85E
102
}
330
2A
100
AcDbVisualStyle
  2
Dim
 70
    11
 71
     2
 72
     2
 73
     0
 90
        0
 40
-0.6
 41
-30.0
 62
     5
 63
     7
 74
     1
 91
        4
 64
     7
 65
   257
 75
     1
175
     1
 42
1.0
 92
        8
 66
     7
 43
1.0
 76
     1
 77
     6
 78
     2
 67
     7
 79
     5
170
     0
171
     0
290
     0
174
     0
 93
        1
 44
-50.0
173
     0
291
     1
 45
0.0
1001
ACAD
1000
AcDbSavedByObjectVersion
1070
     0
  0
VISUALSTYLE
  5
39
102
{ACAD_REACTORS
330
2A
102
}
102
{ACAD_XDICTIONARY
360
866
102
}
330
2A
100
AcDbVisualStyle
  2
Facepattern
 70
    15
 71
     2
 72
     2
 73
     0
 90
        0
 40
-0.6
 41
-30.0
 62
     5
 63
     7
 74
     1
 91
        4
 64
     7
 65
   257
 75
     1
175
     1
 42
1.0
 92
        8
 66
     7
 43
1.0
 76
     1
 77
     6
 78
     2
 67
     7
 79
     5
170
     0
171
     0
290
     0
174
     0
 93
        1
 44
0.0
173
     0
291
     1
 45
0.0
1001
ACAD
1000
AcDbSavedByObjectVersion
1070
     0
  0
VISUALSTYLE
  5
2B
102
{ACAD_REACTORS
330
2A
102
}
102
{ACAD_XDICTIONARY
360
84A
102
}
330
2A
100
AcDbVisualStyle
  2
Flat
 70
     0
 71
     2
 72
     1
 73
     1
 90
        2
 40
-0.6
 41
30.0
 62
     5
 63
     7
 74
     0
 91
        4
 64
     7
 65
   257
 75
     1
175
     1
 42
1.0
 92
        8
 66
     7
 43
1.0
 76
     1
 77
     6
 78
     2
 67
     7
 79
     5
170
     0
171
     0
290
     0
174
     0
 93
       13
 44
0.0
173
     0
291
     1
 45
0.0
1001
ACAD
1000
AcDbSavedByObjectVersion
1070
     0
  0
VISUALSTYLE
  5
2C
102
{ACAD_REACTORS
330
2A
102
}
102
{ACAD_XDICTIONARY
360
84C
102
}
330
2A
100
AcDbVisualStyle
  2
FlatWithEdges
 70
     1
 71
     2
 72
     1
 73
     1
 90
        2
 40
-0.6
 41
30.0
 62
     5
 63
     7
 74
     1
 91
        4
 64
     7
 65
   257
 75
     1
175
     1
 42
1.0
 92
        0
 66
   257
 43
1.0
 76
     1
 77
     6
 78
     2
 67
     7
 79
     5
170
     0
171
     0
290
     0
174
     0
 93
       13
 44
0.0
173
     0
291
     1
 45
0.0
1001
ACAD
1000
AcDbSavedByObjectVersion
1070
     0
  0
VISUALSTYLE
  5
2D
102
{ACAD_REACTORS
330
2A
102
}
102
{ACAD_XDICTIONARY
360
84E
102
}
330
2A
100
AcDbVisualStyle
  2
Gouraud
 70
     2
 71
     2
 72
     2
 73
     1
 90
        2
 40
-0.6
 41
30.0
 62
     5
 63
     7
 74
     0
 91
        4
 64
     7
 65
   257
 75
     1
175
     1
 42
1.0
 92
        0
 66
     7
 43
1.0
 76
     1
 77
     6
 78
     2
 67
     7
 79
     5
170
     0
171
     0
290
     0
174
     0
 93
       13
 44
0.0
173
     0
291
     1
 45
0.0
1001
ACAD
1000
AcDbSavedByObjectVersion
1070
     0
  0
VISUALSTYLE
  5
2E
102
{ACAD_REACTORS
330
2A
102
}
102
{ACAD_XDICTIONARY
360
850
102
}
330
2A
100
AcDbVisualStyle
  2
GouraudWithEdges
 70
     3
 71
     2
 72
     2
 73
     1
 90
        2
 40
-0.6
 41
30.0
 62
     5
 63
     7
 74
     1
 91
        4
 64
     7
 65
   257
 75
     1
175
     1
 42
1.0
 92
        0
 66
   257
 43
1.0
 76
     1
 77
     6
 78
     2
 67
     7
 79
     5
170
     0
171
     0
290
     0
174
     0
 93
       13
 44
0.0
173
     0
291
     1
 45
0.0
1001
ACAD
1000
AcDbSavedByObjectVersion
1070
     0
  0
VISUALSTYLE
  5
38
102
{ACAD_REACTORS
330
2A
102
}
102
{ACAD_XDICTIONARY
360
864
102
}
330
2A
100
AcDbVisualStyle
  2
Linepattern
 70
    14
 71
     2
 72
     2
 73
     0
 90
        0
 40
-0.6
 41
-30.0
 62
     5
 63
     7
 74
     1
 91
        4
 64
     7
 65
   257
 75
     7
175
     7
 42
1.0
 92
        8
 66
     7
 43
1.0
 76
     1
 77
     6
 78
     2
 67
     7
 79
     5
170
     0
171
     0
290
     0
174
     0
 93
        1
 44
0.0
173
     0
291
     1
 45
0.0
1001
ACAD
1000
AcDbSavedByObjectVersion
1070
     0
  0
VISUALSTYLE
  5
33
102
{ACAD_REACTORS
330
2A
102
}
102
{ACAD_XDICTIONARY
360
85A
102
}
330
2A
100
AcDbVisualStyle
  2
Realistic
 70
     8
 71
     2
 72
     2
 73
     0
 90
        0
 40
-0.6
 41
-30.0
 62
     5
 63
     7
 74
     1
 91
        0
 64
     7
 65
   257
 75
     1
175
     1
 42
1.0
 92
        8
 66
     8
 43
1.0
 76
     1
 77
     6
 78
     2
 67
     7
 79
     5
170
     0
171
     0
290
     0
174
     0
 93
       13
 44
0.0
173
     0
291
     0
 45
0.0
1001
ACAD
1000
AcDbSavedByObjectVersion
1070
     0
  0
VISUALSTYLE
  5
37
102
{ACAD_REACTORS
330
2A
102
}
102
{ACAD_XDICTIONARY
360
862
102
}
330
2A
100
AcDbVisualStyle
  2
Thicken
 70
    13
 71
     2
 72
     2
 73
     0
 90
        0
 40
-0.6
 41
-30.0
 62
     5
 63
     7
 74
     1
 91
        4
 64
     7
 65
   257
 75
     1
175
     1
 42
1.0
 92
       12
 66
     7
 43
1.0
 76
     1
 77
     6
 78
     2
 67
     7
 79
     5
170
     0
171
     0
290
     0
174
     0
 93
        1
 44
0.0
173
     0
291
     1
 45
0.0
1001
ACAD
1000
AcDbSavedByObjectVersion
1070
     0
  0
DICTIONARYVAR
  5
848
102
{ACAD_REACTORS
330
845
102
}
330
845
100
DictionaryVariables
280
     0
  1
2
  0
DICTIONARYVAR
  5
849
102
{ACAD_REACTORS
330
845
102
}
330
845
100
DictionaryVariables
280
     0
  1
1
  0
DICTIONARY
  5
86C
330
3D
100
AcDbDictionary
280
     1
281
     1
  3
ACAD_XREC_ROUNDTRIP
360
86D
  0
DICTIONARY
  5
86A
330
3C
100
AcDbDictionary
280
     1
281
     1
  3
ACAD_XREC_ROUNDTRIP
360
86B
  0
DICTIONARY
  5
86E
330
3E
100
AcDbDictionary
280
     1
281
     1
  3
ACAD_XREC_ROUNDTRIP
360
86F
  0
DICTIONARY
  5
852
330
2F
100
AcDbDictionary
280
     1
281
     1
  3
ACAD_XREC_ROUNDTRIP
360
853
  0
DICTIONARY
  5
856
330
31
100
AcDbDictionary
280
     1
281
     1
  3
ACAD_XREC_ROUNDTRIP
360
857
  0
DICTIONARY
  5
854
330
30
100
AcDbDictionary
280
     1
281
     1
  3
ACAD_XREC_ROUNDTRIP
360
855
  0
DICTIONARY
  5
858
330
32
100
AcDbDictionary
280
     1
281
     1
  3
ACAD_XREC_ROUNDTRIP
360
859
  0
DICTIONARY
  5
860
330
36
100
AcDbDictionary
280
     1
281
     1
  3
ACAD_XREC_ROUNDTRIP
360
861
  0
DICTIONARY
  5
868
330
3A
100
AcDbDictionary
280
     1
281
     1
  3
ACAD_XREC_ROUNDTRIP
360
869
  0
DICTIONARY
  5
85C
330
34
100
AcDbDictionary
280
     1
281
     1
  3
ACAD_XREC_ROUNDTRIP
360
85D
  0
DICTIONARY
  5
85E
330
35
100
AcDbDictionary
280
     1
281
     1
  3
ACAD_XREC_ROUNDTRIP
360
85F
  0
DICTIONARY
  5
866
330
39
100
AcDbDictionary
280
     1
281
     1
  3
ACAD_XREC_ROUNDTRIP
360
867
  0
DICTIONARY
  5
84A
330
2B
100
AcDbDictionary
280
     1
281
     1
  3
ACAD_XREC_ROUNDTRIP
360
84B
  0
DICTIONARY
  5
84C
330
2C
100
AcDbDictionary
280
     1
281
     1
  3
ACAD_XREC_ROUNDTRIP
360
84D
  0
DICTIONARY
  5
84E
330
2D
100
AcDbDictionary
280
     1
281
     1
  3
ACAD_XREC_ROUNDTRIP
360
84F
  0
DICTIONARY
  5
850
330
2E
100
AcDbDictionary
280
     1
281
     1
  3
ACAD_XREC_ROUNDTRIP
360
851
  0
DICTIONARY
  5
864
330
38
100
AcDbDictionary
280
     1
281
     1
  3
ACAD_XREC_ROUNDTRIP
360
865
  0
DICTIONARY
  5
85A
330
33
100
AcDbDictionary
280
     1
281
     1
  3
ACAD_XREC_ROUNDTRIP
360
85B
  0
DICTIONARY
  5
862
330
37
100
AcDbDictionary
280
     1
281
     1
  3
ACAD_XREC_ROUNDTRIP
360
863
  0
XRECORD
  5
86D
102
{ACAD_REACTORS
330
86C
102
}
330
86C
100
AcDbXrecord
280
     1
102
MATERIAL
148
0.0
149
0.0
149
0.0
 93
        0
 94
      127
282
     0
 72
     1
 77
     1
171
     1
175
     1
179
     1
273
     0
  0
XRECORD
  5
86B
102
{ACAD_REACTORS
330
86A
102
}
330
86A
100
AcDbXrecord
280
     1
102
MATERIAL
148
0.0
149
0.0
149
0.0
 93
        0
 94
      127
282
     0
 72
     1
 77
     1
171
     1
175
     1
179
     1
273
     0
  0
XRECORD
  5
86F
102
{ACAD_REACTORS
330
86E
102
}
330
86E
100
AcDbXrecord
280
     1
102
MATERIAL
148
0.0
149
0.0
149
0.0
 93
        0
 94
      127
282
     0
 72
     1
 77
     1
171
     1
175
     1
179
     1
273
     0
  0
XRECORD
  5
853
102
{ACAD_REACTORS
330
852
102
}
330
852
100
AcDbXrecord
280
     1
102
RTVSPropertyOp0
 70
     1
102
RTVSPropertyOp1
 70
     1
102
RTVSPropertyOp2
 70
     1
102
RTVSPropertyOp3
 70
     1
102
RTVSPropertyOp4
 70
     1
102
RTVSPropertyOp5
 70
     1
102
RTVSPropertyOp6
 70
     1
102
RTVSPropertyOp7
 70
     1
102
RTVSPropertyOp8
 70
     1
102
RTVSPropertyOp9
 70
     1
102
RTVSPropertyOp10
 70
     1
102
RTVSPropertyOp11
 70
     1
102
RTVSPropertyOp12
 70
     1
102
RTVSPropertyOp13
 70
     1
102
RTVSPropertyOp14
 70
     1
102
RTVSPropertyOp15
 70
     1
102
RTVSPropertyOp16
 70
     1
102
RTVSPropertyOp17
 70
     1
102
RTVSPropertyOp18
 70
     1
102
RTVSPropertyOp19
 70
     1
102
RTVSPropertyOp20
 70
     1
102
RTVSPropertyOp21
 70
     1
102
RTVSPropertyOp22
 70
     1
102
RTVSPropertyOp23
 70
     1
102
RTVSPropertyOp24
 70
     1
102
RTVSPropertyOp25
 70
     1
102
RTVSPropertyOp26
 70
     1
102
RTVSPropertyOp27
 70
     1
102
RTVSPropertyOp28
 70
     1
102
RTVSPropertyOp29
 70
     1
102
RTVSPropertyOp30
 70
     1
102
RTVSPropertyOp31
 70
     1
102
RTVSPropertyOp32
 70
     1
  0
XRECORD
  5
857
102
{ACAD_REACTORS
330
856
102
}
330
856
100
AcDbXrecord
280
     1
102
RTVSPropertyOp0
 70
     1
102
RTVSPropertyOp1
 70
     1
102
RTVSPropertyOp2
 70
     1
102
RTVSPropertyOp3
 70
     1
102
RTVSPropertyOp4
 70
     1
102
RTVSPropertyOp5
 70
     1
102
RTVSPropertyOp6
 70
     1
102
RTVSPropertyOp7
 70
     1
102
RTVSPropertyOp8
 70
     1
102
RTVSPropertyOp9
 70
     1
102
RTVSPropertyOp10
 70
     1
102
RTVSPropertyOp11
 70
     1
102
RTVSPropertyOp12
 70
     1
102
RTVSPropertyOp13
 70
     1
102
RTVSPropertyOp14
 70
     1
102
RTVSPropertyOp15
 70
     1
102
RTVSPropertyOp16
 70
     1
102
RTVSPropertyOp17
 70
     1
102
RTVSPropertyOp18
 70
     1
102
RTVSPropertyOp19
 70
     1
102
RTVSPropertyOp20
 70
     1
102
RTVSPropertyOp21
 70
     1
102
RTVSPropertyOp22
 70
     1
102
RTVSPropertyOp23
 70
     1
102
RTVSPropertyOp24
 70
     1
102
RTVSPropertyOp25
 70
     1
102
RTVSPropertyOp26
 70
     1
102
RTVSPropertyOp27
 70
     1
102
RTVSPropertyOp28
 70
     1
102
RTVSPropertyOp29
 70
     1
102
RTVSPropertyOp30
 70
     1
102
RTVSPropertyOp31
 70
     1
102
RTVSPropertyOp32
 70
     1
  0
XRECORD
  5
855
102
{ACAD_REACTORS
330
854
102
}
330
854
100
AcDbXrecord
280
     1
102
RTVSPropertyOp0
 70
     1
102
RTVSPropertyOp1
 70
     1
102
RTVSPropertyOp2
 70
     1
102
RTVSPropertyOp3
 70
     1
102
RTVSPropertyOp4
 70
     1
102
RTVSPropertyOp5
 70
     1
102
RTVSPropertyOp6
 70
     1
102
RTVSPropertyOp7
 70
     1
102
RTVSPropertyOp8
 70
     1
102
RTVSPropertyOp9
 70
     1
102
RTVSPropertyOp10
 70
     1
102
RTVSPropertyOp11
 70
     1
102
RTVSPropertyOp12
 70
     1
102
RTVSPropertyOp13
 70
     1
102
RTVSPropertyOp14
 70
     1
102
RTVSPropertyOp15
 70
     1
102
RTVSPropertyOp16
 70
     1
102
RTVSPropertyOp17
 70
     1
102
RTVSPropertyOp18
 70
     1
102
RTVSPropertyOp19
 70
     1
102
RTVSPropertyOp20
 70
     1
102
RTVSPropertyOp21
 70
     1
102
RTVSPropertyOp22
 70
     1
102
RTVSPropertyOp23
 70
     1
102
RTVSPropertyOp24
 70
     1
102
RTVSPropertyOp25
 70
     1
102
RTVSPropertyOp26
 70
     1
102
RTVSPropertyOp27
 70
     1
102
RTVSPropertyOp28
 70
     1
102
RTVSPropertyOp29
 70
     1
102
RTVSPropertyOp30
 70
     1
102
RTVSPropertyOp31
 70
     1
102
RTVSPropertyOp32
 70
     1
  0
XRECORD
  5
859
102
{ACAD_REACTORS
330
858
102
}
330
858
100
AcDbXrecord
280
     1
102
RTVSPropertyOp0
 70
     1
102
RTVSPropertyOp1
 70
     1
102
RTVSPropertyOp2
 70
     1
102
RTVSPropertyOp3
 70
     1
102
RTVSPropertyOp4
 70
     1
102
RTVSPropertyOp5
 70
     1
102
RTVSPropertyOp6
 70
     1
102
RTVSPropertyOp7
 70
     1
102
RTVSPropertyOp8
 70
     1
102
RTVSPropertyOp9
 70
     1
102
RTVSPropertyOp10
 70
     1
102
RTVSPropertyOp11
 70
     1
102
RTVSPropertyOp12
 70
     1
102
RTVSPropertyOp13
 70
     1
102
RTVSPropertyOp14
 70
     1
102
RTVSPropertyOp15
 70
     1
102
RTVSPropertyOp16
 70
     1
102
RTVSPropertyOp17
 70
     1
102
RTVSPropertyOp18
 70
     1
102
RTVSPropertyOp19
 70
     1
102
RTVSPropertyOp20
 70
     1
102
RTVSPropertyOp21
 70
     1
102
RTVSPropertyOp22
 70
     1
102
RTVSPropertyOp23
 70
     1
102
RTVSPropertyOp24
 70
     1
102
RTVSPropertyOp25
 70
     1
102
RTVSPropertyOp26
 70
     1
102
RTVSPropertyOp27
 70
     1
102
RTVSPropertyOp28
 70
     1
102
RTVSPropertyOp29
 70
     1
102
RTVSPropertyOp30
 70
     1
102
RTVSPropertyOp31
 70
     1
102
RTVSPropertyOp32
 70
     1
  0
XRECORD
  5
861
102
{ACAD_REACTORS
330
860
102
}
330
860
100
AcDbXrecord
280
     1
102
RTVSPropertyOp0
 70
     1
102
RTVSPropertyOp1
 70
     1
102
RTVSPropertyOp2
 70
     1
102
RTVSPropertyOp3
 70
     1
102
RTVSPropertyOp4
 70
     1
102
RTVSPropertyOp5
 70
     1
102
RTVSPropertyOp6
 70
     1
102
RTVSPropertyOp7
 70
     1
102
RTVSPropertyOp8
 70
     1
102
RTVSPropertyOp9
 70
     1
102
RTVSPropertyOp10
 70
     1
102
RTVSPropertyOp11
 70
     1
102
RTVSPropertyOp12
 70
     1
102
RTVSPropertyOp13
 70
     1
102
RTVSPropertyOp14
 70
     1
102
RTVSPropertyOp15
 70
     1
102
RTVSPropertyOp16
 70
     1
102
RTVSPropertyOp17
 70
     1
102
RTVSPropertyOp18
 70
     1
102
RTVSPropertyOp19
 70
     1
102
RTVSPropertyOp20
 70
     1
102
RTVSPropertyOp21
 70
     1
102
RTVSPropertyOp22
 70
     1
102
RTVSPropertyOp23
 70
     1
102
RTVSPropertyOp24
 70
     1
102
RTVSPropertyOp25
 70
     1
102
RTVSPropertyOp26
 70
     1
102
RTVSPropertyOp27
 70
     1
102
RTVSPropertyOp28
 70
     1
102
RTVSPropertyOp29
 70
     1
102
RTVSPropertyOp30
 70
     1
102
RTVSPropertyOp31
 70
     1
102
RTVSPropertyOp32
 70
     1
  0
XRECORD
  5
869
102
{ACAD_REACTORS
330
868
102
}
330
868
100
AcDbXrecord
280
     1
102
RTVSPropertyOp0
 70
     1
102
RTVSPropertyOp1
 70
     1
102
RTVSPropertyOp2
 70
     1
102
RTVSPropertyOp3
 70
     1
102
RTVSPropertyOp4
 70
     1
102
RTVSPropertyOp5
 70
     1
102
RTVSPropertyOp6
 70
     1
102
RTVSPropertyOp7
 70
     1
102
RTVSPropertyOp8
 70
     1
102
RTVSPropertyOp9
 70
     1
102
RTVSPropertyOp10
 70
     1
102
RTVSPropertyOp11
 70
     1
102
RTVSPropertyOp12
 70
     1
102
RTVSPropertyOp13
 70
     1
102
RTVSPropertyOp14
 70
     1
102
RTVSPropertyOp15
 70
     1
102
RTVSPropertyOp16
 70
     1
102
RTVSPropertyOp17
 70
     1
102
RTVSPropertyOp18
 70
     1
102
RTVSPropertyOp19
 70
     1
102
RTVSPropertyOp20
 70
     1
102
RTVSPropertyOp21
 70
     1
102
RTVSPropertyOp22
 70
     1
102
RTVSPropertyOp23
 70
     1
102
RTVSPropertyOp24
 70
     1
102
RTVSPropertyOp25
 70
     1
102
RTVSPropertyOp26
 70
     1
102
RTVSPropertyOp27
 70
     1
102
RTVSPropertyOp28
 70
     1
102
RTVSPropertyOp29
 70
     1
102
RTVSPropertyOp30
 70
     1
102
RTVSPropertyOp31
 70
     1
102
RTVSPropertyOp32
 70
     1
  0
XRECORD
  5
85D
102
{ACAD_REACTORS
330
85C
102
}
330
85C
100
AcDbXrecord
280
     1
102
RTVSPropertyOp0
 70
     1
102
RTVSPropertyOp1
 70
     1
102
RTVSPropertyOp2
 70
     1
102
RTVSPropertyOp3
 70
     1
102
RTVSPropertyOp4
 70
     1
102
RTVSPropertyOp5
 70
     1
102
RTVSPropertyOp6
 70
     1
102
RTVSPropertyOp7
 70
     1
102
RTVSPropertyOp8
 70
     1
102
RTVSPropertyOp9
 70
     1
102
RTVSPropertyOp10
 70
     1
102
RTVSPropertyOp11
 70
     1
102
RTVSPropertyOp12
 70
     1
102
RTVSPropertyOp13
 70
     1
102
RTVSPropertyOp14
 70
     1
102
RTVSPropertyOp15
 70
     1
102
RTVSPropertyOp16
 70
     1
102
RTVSPropertyOp17
 70
     1
102
RTVSPropertyOp18
 70
     1
102
RTVSPropertyOp19
 70
     1
102
RTVSPropertyOp20
 70
     1
102
RTVSPropertyOp21
 70
     1
102
RTVSPropertyOp22
 70
     1
102
RTVSPropertyOp23
 70
     1
102
RTVSPropertyOp24
 70
     1
102
RTVSPropertyOp25
 70
     1
102
RTVSPropertyOp26
 70
     1
102
RTVSPropertyOp27
 70
     1
102
RTVSPropertyOp28
 70
     1
102
RTVSPropertyOp29
 70
     1
102
RTVSPropertyOp30
 70
     1
102
RTVSPropertyOp31
 70
     1
102
RTVSPropertyOp32
 70
     1
  0
XRECORD
  5
85F
102
{ACAD_REACTORS
330
85E
102
}
330
85E
100
AcDbXrecord
280
     1
102
RTVSPropertyOp0
 70
     1
102
RTVSPropertyOp1
 70
     1
102
RTVSPropertyOp2
 70
     1
102
RTVSPropertyOp3
 70
     1
102
RTVSPropertyOp4
 70
     1
102
RTVSPropertyOp5
 70
     1
102
RTVSPropertyOp6
 70
     1
102
RTVSPropertyOp7
 70
     1
102
RTVSPropertyOp8
 70
     1
102
RTVSPropertyOp9
 70
     1
102
RTVSPropertyOp10
 70
     1
102
RTVSPropertyOp11
 70
     1
102
RTVSPropertyOp12
 70
     1
102
RTVSPropertyOp13
 70
     1
102
RTVSPropertyOp14
 70
     1
102
RTVSPropertyOp15
 70
     1
102
RTVSPropertyOp16
 70
     1
102
RTVSPropertyOp17
 70
     1
102
RTVSPropertyOp18
 70
     1
102
RTVSPropertyOp19
 70
     1
102
RTVSPropertyOp20
 70
     1
102
RTVSPropertyOp21
 70
     1
102
RTVSPropertyOp22
 70
     1
102
RTVSPropertyOp23
 70
     1
102
RTVSPropertyOp24
 70
     1
102
RTVSPropertyOp25
 70
     1
102
RTVSPropertyOp26
 70
     1
102
RTVSPropertyOp27
 70
     1
102
RTVSPropertyOp28
 70
     1
102
RTVSPropertyOp29
 70
     1
102
RTVSPropertyOp30
 70
     1
102
RTVSPropertyOp31
 70
     1
102
RTVSPropertyOp32
 70
     1
  0
XRECORD
  5
867
102
{ACAD_REACTORS
330
866
102
}
330
866
100
AcDbXrecord
280
     1
102
RTVSPropertyOp0
 70
     1
102
RTVSPropertyOp1
 70
     1
102
RTVSPropertyOp2
 70
     1
102
RTVSPropertyOp3
 70
     1
102
RTVSPropertyOp4
 70
     1
102
RTVSPropertyOp5
 70
     1
102
RTVSPropertyOp6
 70
     1
102
RTVSPropertyOp7
 70
     1
102
RTVSPropertyOp8
 70
     1
102
RTVSPropertyOp9
 70
     1
102
RTVSPropertyOp10
 70
     1
102
RTVSPropertyOp11
 70
     1
102
RTVSPropertyOp12
 70
     1
102
RTVSPropertyOp13
 70
     1
102
RTVSPropertyOp14
 70
     1
102
RTVSPropertyOp15
 70
     1
102
RTVSPropertyOp16
 70
     1
102
RTVSPropertyOp17
 70
     1
102
RTVSPropertyOp18
 70
     1
102
RTVSPropertyOp19
 70
     1
102
RTVSPropertyOp20
 70
     1
102
RTVSPropertyOp21
 70
     1
102
RTVSPropertyOp22
 70
     1
102
RTVSPropertyOp23
 70
     1
102
RTVSPropertyOp24
 70
     1
102
RTVSPropertyOp25
 70
     1
102
RTVSPropertyOp26
 70
     1
102
RTVSPropertyOp27
 70
     1
102
RTVSPropertyOp28
 70
     1
102
RTVSPropertyOp29
 70
     1
102
RTVSPropertyOp30
 70
     1
102
RTVSPropertyOp31
 70
     1
102
RTVSPropertyOp32
 70
     1
  0
XRECORD
  5
84B
102
{ACAD_REACTORS
330
84A
102
}
330
84A
100
AcDbXrecord
280
     1
102
RTVSPropertyOp0
 70
     1
102
RTVSPropertyOp1
 70
     1
102
RTVSPropertyOp2
 70
     1
102
RTVSPropertyOp3
 70
     1
102
RTVSPropertyOp4
 70
     1
102
RTVSPropertyOp5
 70
     1
102
RTVSPropertyOp6
 70
     1
102
RTVSPropertyOp7
 70
     1
102
RTVSPropertyOp8
 70
     1
102
RTVSPropertyOp9
 70
     1
102
RTVSPropertyOp10
 70
     1
102
RTVSPropertyOp11
 70
     1
102
RTVSPropertyOp12
 70
     1
102
RTVSPropertyOp13
 70
     1
102
RTVSPropertyOp14
 70
     1
102
RTVSPropertyOp15
 70
     1
102
RTVSPropertyOp16
 70
     1
102
RTVSPropertyOp17
 70
     1
102
RTVSPropertyOp18
 70
     1
102
RTVSPropertyOp19
 70
     1
102
RTVSPropertyOp20
 70
     1
102
RTVSPropertyOp21
 70
     1
102
RTVSPropertyOp22
 70
     1
102
RTVSPropertyOp23
 70
     1
102
RTVSPropertyOp24
 70
     1
102
RTVSPropertyOp25
 70
     1
102
RTVSPropertyOp26
 70
     1
102
RTVSPropertyOp27
 70
     1
102
RTVSPropertyOp28
 70
     1
102
RTVSPropertyOp29
 70
     1
102
RTVSPropertyOp30
 70
     1
102
RTVSPropertyOp31
 70
     1
102
RTVSPropertyOp32
 70
     1
  0
XRECORD
  5
84D
102
{ACAD_REACTORS
330
84C
102
}
330
84C
100
AcDbXrecord
280
     1
102
RTVSPropertyOp0
 70
     1
102
RTVSPropertyOp1
 70
     1
102
RTVSPropertyOp2
 70
     1
102
RTVSPropertyOp3
 70
     1
102
RTVSPropertyOp4
 70
     1
102
RTVSPropertyOp5
 70
     1
102
RTVSPropertyOp6
 70
     1
102
RTVSPropertyOp7
 70
     1
102
RTVSPropertyOp8
 70
     1
102
RTVSPropertyOp9
 70
     1
102
RTVSPropertyOp10
 70
     1
102
RTVSPropertyOp11
 70
     1
102
RTVSPropertyOp12
 70
     1
102
RTVSPropertyOp13
 70
     1
102
RTVSPropertyOp14
 70
     1
102
RTVSPropertyOp15
 70
     1
102
RTVSPropertyOp16
 70
     1
102
RTVSPropertyOp17
 70
     1
102
RTVSPropertyOp18
 70
     1
102
RTVSPropertyOp19
 70
     1
102
RTVSPropertyOp20
 70
     1
102
RTVSPropertyOp21
 70
     1
102
RTVSPropertyOp22
 70
     1
102
RTVSPropertyOp23
 70
     1
102
RTVSPropertyOp24
 70
     1
102
RTVSPropertyOp25
 70
     1
102
RTVSPropertyOp26
 70
     1
102
RTVSPropertyOp27
 70
     1
102
RTVSPropertyOp28
 70
     1
102
RTVSPropertyOp29
 70
     1
102
RTVSPropertyOp30
 70
     1
102
RTVSPropertyOp31
 70
     1
102
RTVSPropertyOp32
 70
     1
  0
XRECORD
  5
84F
102
{ACAD_REACTORS
330
84E
102
}
330
84E
100
AcDbXrecord
280
     1
102
RTVSPropertyOp0
 70
     1
102
RTVSPropertyOp1
 70
     1
102
RTVSPropertyOp2
 70
     1
102
RTVSPropertyOp3
 70
     1
102
RTVSPropertyOp4
 70
     1
102
RTVSPropertyOp5
 70
     1
102
RTVSPropertyOp6
 70
     1
102
RTVSPropertyOp7
 70
     1
102
RTVSPropertyOp8
 70
     1
102
RTVSPropertyOp9
 70
     1
102
RTVSPropertyOp10
 70
     1
102
RTVSPropertyOp11
 70
     1
102
RTVSPropertyOp12
 70
     1
102
RTVSPropertyOp13
 70
     1
102
RTVSPropertyOp14
 70
     1
102
RTVSPropertyOp15
 70
     1
102
RTVSPropertyOp16
 70
     1
102
RTVSPropertyOp17
 70
     1
102
RTVSPropertyOp18
 70
     1
102
RTVSPropertyOp19
 70
     1
102
RTVSPropertyOp20
 70
     1
102
RTVSPropertyOp21
 70
     1
102
RTVSPropertyOp22
 70
     1
102
RTVSPropertyOp23
 70
     1
102
RTVSPropertyOp24
 70
     1
102
RTVSPropertyOp25
 70
     1
102
RTVSPropertyOp26
 70
     1
102
RTVSPropertyOp27
 70
     1
102
RTVSPropertyOp28
 70
     1
102
RTVSPropertyOp29
 70
     1
102
RTVSPropertyOp30
 70
     1
102
RTVSPropertyOp31
 70
     1
102
RTVSPropertyOp32
 70
     1
  0
XRECORD
  5
851
102
{ACAD_REACTORS
330
850
102
}
330
850
100
AcDbXrecord
280
     1
102
RTVSPropertyOp0
 70
     1
102
RTVSPropertyOp1
 70
     1
102
RTVSPropertyOp2
 70
     1
102
RTVSPropertyOp3
 70
     1
102
RTVSPropertyOp4
 70
     1
102
RTVSPropertyOp5
 70
     1
102
RTVSPropertyOp6
 70
     1
102
RTVSPropertyOp7
 70
     1
102
RTVSPropertyOp8
 70
     1
102
RTVSPropertyOp9
 70
     1
102
RTVSPropertyOp10
 70
     1
102
RTVSPropertyOp11
 70
     1
102
RTVSPropertyOp12
 70
     1
102
RTVSPropertyOp13
 70
     1
102
RTVSPropertyOp14
 70
     1
102
RTVSPropertyOp15
 70
     1
102
RTVSPropertyOp16
 70
     1
102
RTVSPropertyOp17
 70
     1
102
RTVSPropertyOp18
 70
     1
102
RTVSPropertyOp19
 70
     1
102
RTVSPropertyOp20
 70
     1
102
RTVSPropertyOp21
 70
     1
102
RTVSPropertyOp22
 70
     1
102
RTVSPropertyOp23
 70
     1
102
RTVSPropertyOp24
 70
     1
102
RTVSPropertyOp25
 70
     1
102
RTVSPropertyOp26
 70
     1
102
RTVSPropertyOp27
 70
     1
102
RTVSPropertyOp28
 70
     1
102
RTVSPropertyOp29
 70
     1
102
RTVSPropertyOp30
 70
     1
102
RTVSPropertyOp31
 70
     1
102
RTVSPropertyOp32
 70
     1
  0
XRECORD
  5
865
102
{ACAD_REACTORS
330
864
102
}
330
864
100
AcDbXrecord
280
     1
102
RTVSPropertyOp0
 70
     1
102
RTVSPropertyOp1
 70
     1
102
RTVSPropertyOp2
 70
     1
102
RTVSPropertyOp3
 70
     1
102
RTVSPropertyOp4
 70
     1
102
RTVSPropertyOp5
 70
     1
102
RTVSPropertyOp6
 70
     1
102
RTVSPropertyOp7
 70
     1
102
RTVSPropertyOp8
 70
     1
102
RTVSPropertyOp9
 70
     1
102
RTVSPropertyOp10
 70
     1
102
RTVSPropertyOp11
 70
     1
102
RTVSPropertyOp12
 70
     1
102
RTVSPropertyOp13
 70
     1
102
RTVSPropertyOp14
 70
     1
102
RTVSPropertyOp15
 70
     1
102
RTVSPropertyOp16
 70
     1
102
RTVSPropertyOp17
 70
     1
102
RTVSPropertyOp18
 70
     1
102
RTVSPropertyOp19
 70
     1
102
RTVSPropertyOp20
 70
     1
102
RTVSPropertyOp21
 70
     1
102
RTVSPropertyOp22
 70
     1
102
RTVSPropertyOp23
 70
     1
102
RTVSPropertyOp24
 70
     1
102
RTVSPropertyOp25
 70
     1
102
RTVSPropertyOp26
 70
     1
102
RTVSPropertyOp27
 70
     1
102
RTVSPropertyOp28
 70
     1
102
RTVSPropertyOp29
 70
     1
102
RTVSPropertyOp30
 70
     1
102
RTVSPropertyOp31
 70
     1
102
RTVSPropertyOp32
 70
     1
  0
XRECORD
  5
85B
102
{ACAD_REACTORS
330
85A
102
}
330
85A
100
AcDbXrecord
280
     1
102
RTVSPropertyOp0
 70
     1
102
RTVSPropertyOp1
 70
     1
102
RTVSPropertyOp2
 70
     1
102
RTVSPropertyOp3
 70
     1
102
RTVSPropertyOp4
 70
     1
102
RTVSPropertyOp5
 70
     1
102
RTVSPropertyOp6
 70
     1
102
RTVSPropertyOp7
 70
     1
102
RTVSPropertyOp8
 70
     1
102
RTVSPropertyOp9
 70
     1
102
RTVSPropertyOp10
 70
     1
102
RTVSPropertyOp11
 70
     1
102
RTVSPropertyOp12
 70
     1
102
RTVSPropertyOp13
 70
     1
102
RTVSPropertyOp14
 70
     1
102
RTVSPropertyOp15
 70
     1
102
RTVSPropertyOp16
 70
     1
102
RTVSPropertyOp17
 70
     1
102
RTVSPropertyOp18
 70
     1
102
RTVSPropertyOp19
 70
     1
102
RTVSPropertyOp20
 70
     1
102
RTVSPropertyOp21
 70
     1
102
RTVSPropertyOp22
 70
     1
102
RTVSPropertyOp23
 70
     1
102
RTVSPropertyOp24
 70
     1
102
RTVSPropertyOp25
 70
     1
102
RTVSPropertyOp26
 70
     1
102
RTVSPropertyOp27
 70
     1
102
RTVSPropertyOp28
 70
     1
102
RTVSPropertyOp29
 70
     1
102
RTVSPropertyOp30
 70
     1
102
RTVSPropertyOp31
 70
     1
102
RTVSPropertyOp32
 70
     1
  0
XRECORD
  5
863
102
{ACAD_REACTORS
330
862
102
}
330
862
100
AcDbXrecord
280
     1
102
RTVSPropertyOp0
 70
     1
102
RTVSPropertyOp1
 70
     1
102
RTVSPropertyOp2
 70
     1
102
RTVSPropertyOp3
 70
     1
102
RTVSPropertyOp4
 70
     1
102
RTVSPropertyOp5
 70
     1
102
RTVSPropertyOp6
 70
     1
102
RTVSPropertyOp7
 70
     1
102
RTVSPropertyOp8
 70
     1
102
RTVSPropertyOp9
 70
     1
102
RTVSPropertyOp10
 70
     1
102
RTVSPropertyOp11
 70
     1
102
RTVSPropertyOp12
 70
     1
102
RTVSPropertyOp13
 70
     1
102
RTVSPropertyOp14
 70
     1
102
RTVSPropertyOp15
 70
     1
102
RTVSPropertyOp16
 70
     1
102
RTVSPropertyOp17
 70
     1
102
RTVSPropertyOp18
 70
     1
102
RTVSPropertyOp19
 70
     1
102
RTVSPropertyOp20
 70
     1
102
RTVSPropertyOp21
 70
     1
102
RTVSPropertyOp22
 70
     1
102
RTVSPropertyOp23
 70
     1
102
RTVSPropertyOp24
 70
     1
102
RTVSPropertyOp25
 70
     1
102
RTVSPropertyOp26
 70
     1
102
RTVSPropertyOp27
 70
     1
102
RTVSPropertyOp28
 70
     1
102
RTVSPropertyOp29
 70
     1
102
RTVSPropertyOp30
 70
     1
102
RTVSPropertyOp31
 70
     1
102
RTVSPropertyOp32
 70
     1
  0
ENDSEC
  0
EOF
